Ивановский Торрент трекер
Яндекс.Погода
 

[Quote]
HUNTER

Спасатели / The Rescuers- Страна: США
Жанр: мультфильм, фэнтези, драма, криминал, детектив, приключения, семейный
Продолжительность: 01:17:13
Год выпуска: 1977
Перевод 1: Профессиональный (дублированный)
Перевод 2: Профессиональный (многоголосый, закадровый)
Русские субтитры: есть-Режиссёр: Джон Лоунсбери / John Lounsbery, Вольфганг Райтерман / Wolfgang Reitherman, Арт Стивенс / Art Stevens
Роли озвучивали: Боб Ньюхарт, Ева Габор, Джеральдин Пейдж, Джо Флинн, Жанетт Нолан, Пэт Баттрем, Джим Джордан, Джон МакИнтайр, Мишель Стэйси, Бернард Фокс-Описание: В мультфильме студии Уолта Диснея команда спасателей в составе двух храбрых мышей отправляется на поиски пропавшей сироты по имени Пенни. Все начинается, когда бутылочное письмо Пенни с просьбой о помощи выбрасывается на берег и попадает в руки осторожному и хитрому Бернарду и его обаятельной помощнице Мисс Бианке.
Прочитав письмо спасатели не раздумывая отправились выручать Пенни, схваченную отвратительной Мадам Медузой. Но вначале Бернарду и Бианке нужно избежать острых как бритва зубов ручных крокодилов Медузы и проявить массу изобретательности, чтобы наконец достичь цели.- -Качество: BDRip-AVC
Формат: MKV
Видео: x.264, 936x564, 2313 Kbps, 23.976 fps, 0.183 bpf
Аудио 1: AAC, ~128 Kbps, 2.0 channels, 48000 Hz - DUB
Аудио 2: AAC, ~128 Kbps, 2.0 channels, 48000 Hz - MVO
Аудио 3: AAC, ~128 Kbps, 2.0 channels, 48000 Hz - ENG (оригинал)
Субтитры: SRT - Русские (2 вида), английские
-

Скриншоты


Резервные скриншоты


-

Подробные технические данные

Format : Matroska
Format version : Version 4
File size : 1.44 GiB
Duration : 1 h 17 min
Overall bit rate : 2 677 kb/s
Movie name : Спасатели / The Rescuers (1977) BDRip-AVC
Encoded date : UTC 2021-10-12 11:55:40
Writing application : mkvmerge v62.0.0 ('Apollo') 64-bit
Writing library : libebml v1.4.2 + libmatroska v1.6.4
Cover : Yes
Attachments : cover.jpg
Video
ID : 1
Format : AVC
Format/Info : Advanced Video Codec
Format profile : [email protected]
Format settings : CABAC / 12 Ref Frames
Format settings, CABAC : Yes
Format settings, Reference : 12 frames
Codec ID : V_MPEG4/ISO/AVC
Duration : 1 h 17 min
Bit rate : 2 313 kb/s
Width : 936 pixels
Height : 564 pixels
Display aspect ratio : 5:3
Frame rate mode : Constant
Frame rate : 23.976 (24000/1001) FPS
Color space : YUV
Chroma subsampling : 4:2:0
Bit depth : 8 bits
Scan type : Progressive
Bits/(Pixel*Frame) : 0.183
Stream size : 1.25 GiB (86%)
Writing library : x264 core 164 r3075 66a5bc1
Encoding settings : cabac=1 / ref=12 / deblock=1:-1:-1 / analyse=0x3:0x133 / me=umh / subme=10 / psy=1 / psy_rd=1.00:0.00 / mixed_ref=1 / me_range=32 / chroma_me=1 / trellis=2 / 8x8dct=1 / cqm=0 / deadzone=21,11 / fast_pskip=0 / chroma_qp_offset=-2 / threads=6 / lookahead_threads=1 / sliced_threads=0 / nr=0 / decimate=1 / interlaced=0 / bluray_compat=0 / constrained_intra=0 / bframes=12 / b_pyramid=2 / b_adapt=2 / b_bias=0 / direct=3 / weightb=1 / open_gop=0 / weightp=2 / keyint=240 / keyint_min=23 / scenecut=40 / intra_refresh=0 / rc_lookahead=60 / rc=2pass / mbtree=0 / bitrate=2313 / ratetol=1.0 / qcomp=0.60 / qpmin=0 / qpmax=69 / qpstep=4 / cplxblur=20.0 / qblur=0.5 / vbv_maxrate=20000 / vbv_bufsize=25000 / nal_hrd=none / filler=0 / ip_ratio=1.40 / pb_ratio=1.30 / aq=1:1.00
Language : English
Default : Yes
Forced : No
Audio #1
ID : 2
Format : AAC LC
Format/Info : Advanced Audio Codec Low Complexity
Codec ID : A_AAC-2
Duration : 1 h 17 min
Bit rate : 123 kb/s
Channel(s) : 2 channels
Channel layout : L R
Sampling rate : 48.0 kHz
Frame rate : 46.875 FPS (1024 SPF)
Compression mode : Lossy
Stream size : 67.9 MiB (5%)
Title : DUB
Language : English
Default : Yes
Forced : No
Audio #2
ID : 3
Format : AAC LC
Format/Info : Advanced Audio Codec Low Complexity
Codec ID : A_AAC-2
Duration : 1 h 17 min
Bit rate : 118 kb/s
Channel(s) : 2 channels
Channel layout : L R
Sampling rate : 48.0 kHz
Frame rate : 46.875 FPS (1024 SPF)
Compression mode : Lossy
Stream size : 65.1 MiB (4%)
Title : MVO
Language : English
Default : No
Forced : No
Audio #3
ID : 4
Format : AAC LC
Format/Info : Advanced Audio Codec Low Complexity
Codec ID : A_AAC-2
Duration : 1 h 17 min
Bit rate : 118 kb/s
Channel(s) : 2 channels
Channel layout : L R
Sampling rate : 48.0 kHz
Frame rate : 46.875 FPS (1024 SPF)
Compression mode : Lossy
Stream size : 65.0 MiB (4%)
Title : Original
Language : English
Default : No
Forced : No
Text #1
ID : 5
Format : UTF-8
Codec ID : S_TEXT/UTF8
Codec ID/Info : UTF-8 Plain Text
Duration : 1 h 10 min
Bit rate : 1 b/s
Count of elements : 16
Stream size : 598 Bytes (0%)
Title : forced
Language : Russian
Default : Yes
Forced : Yes
Text #2
ID : 6
Format : UTF-8
Codec ID : S_TEXT/UTF8
Codec ID/Info : UTF-8 Plain Text
Duration : 1 h 16 min
Bit rate : 71 b/s
Count of elements : 772
Stream size : 39.8 KiB (0%)
Language : Russian
Default : No
Forced : No
Text #3
ID : 7
Format : UTF-8
Codec ID : S_TEXT/UTF8
Codec ID/Info : UTF-8 Plain Text
Duration : 1 h 16 min
Bit rate : 48 b/s
Count of elements : 970
Stream size : 27.1 KiB (0%)
Language : English
Default : No
Forced : No
Menu
00:00:00.000 : en:Opening Credits / "The Journey"
00:04:17.674 : en:"Rescue Aid Society"
00:11:26.602 : en:Duty Calls
00:14:06.011 : en:At The Orphanage
00:19:50.439 : en:At Madame Medusa's Pawnshop
00:23:57.352 : en:Albatross Air Service, Flight #13
00:29:38.151 : en:"Tomorrow Is Another Day"
00:32:37.497 : en:Devil's Bayou
00:38:04.323 : en:Penny Runs Away
00:42:13.322 : en:Mr. Snoops And Madame Medusa's Hideout
00:52:37.946 : en:"Someone's Waiting for You"
00:55:21.985 : en:Escape Plans
01:00:19.282 : en:The Devil's Eye
01:09:11.939 : en:"We Did It!"
01:15:26.980 : en:Volunteers / The End


Display posts:    

Current time is: 23-Oct 12:17

All times are UTC ± 0


You cannot post new topics in this forum
You cannot reply to topics in this forum
You cannot edit your posts in this forum
You cannot delete your posts in this forum
You cannot vote in polls in this forum
You cannot attach files in this forum
You cannot download files in this forum

!ATTENTION!
The site does not give electronic versions of products, and is engaged only in a collecting and cataloguing of the references sent and published at a forum by our readers. If you are the legal owner of any submitted material and do not wish that the reference to it was in our catalogue, contact us and we shall immediately remove her. Files for an exchange on tracker are given by users of a site, and the administration does not bear the responsibility for their maintenance. The request to not fill in the files protected by copyrights, and also files of the illegal maintenance!