Важное объявление!
У Нас Все раздачи мультитрекерные, при нуле пиров в релизах, можете смело вставать на закачку!
Статистика раздачи
Размер:     |    Зарегистрирован:     |    Скачан:     |   
Нет
 
     
 
 
Автор Сообщение

HUNTER

Стаж:
5 лет
Сообщений:
67968

Репутация: 101

[+] [-]
Вне форума [Профиль] [ЛС]

Space and Earth (эксклюзив) / Космос и Земля
Год выпуска: 2007
Страна: Европа
Жанр: Видовой
Продолжительность: 8 минут
Описание: В видеофильме показывается как космические аппараты помогают людям выживать, познавать окружающий мир
Доп. информация: для более комфортного просмoтра установите кодек Elecard
Качество: DVDScreener
Формат: MPEG
Видео кодек: MPEG2
Аудио кодек: AC3
Видео: 720х576 25fps 5000Kbps 16х9
Аудио: 192Kbps stereo 48000Hz

Скриншоты

MediaInfo

GeneralComplete name : M:\!!!SPACE SPACE SPACE!!!\01.Space\03.Europe\2007 - Space and Earth (эксклюзив) - Космос и Земля\2007 - Space and Earth (эксклюзив) - Космос и Земля.mpgFormat : MPEG-PSFile size : 279 MiBDuration : 8mn 20sOverall bit rate mode : VariableOverall bit rate : 4 685 Kbps
VideoID : 224 (0xE0)Format : MPEG VideoFormat version : Version 2Format profile : Main@MainFormat settings, BVOP : NoFormat settings, Matrix : DefaultFormat settings, GOP : N=15Duration : 8mn 20sBit rate mode : VariableBit rate : 4 400 KbpsMaximum bit rate : 9 000 KbpsWidth : 720 pixelsHeight : 576 pixelsDisplay aspect ratio : 16:9Frame rate : 25.000 fpsStandard : PALColor space : YUVChroma subsampling : 4:2:0Bit depth : 8 bitsScan type : ProgressiveCompression mode : LossyBits/(Pixel*Frame) : 0.424Time code of first frame : 00:00:00:00Time code source : Group of pictures headerStream size : 262 MiB (94%)
AudioID : 189 (0xBD)-128 (0x80)Format : AC-3Format/Info : Audio Coding 3Mode extension : CM (complete main)Format settings, Endianness : BigMuxing mode : DVD-VideoDuration : 8mn 20sBit rate mode : ConstantBit rate : 192 KbpsChannel(s) : 2 channelsChannel positions : Front: L RSampling rate : 48.0 KHzBit depth : 16 bitsCompression mode : LossyStream size : 11.4 MiB (4%)
Menu

_________________
Показать сообщения:    

Текущее время: Сегодня 12:54

Часовой пояс: GMT



Вы не можете начинать темы
Вы не можете отвечать на сообщения
Вы не можете редактировать свои сообщения
Вы не можете удалять свои сообщения
Вы не можете голосовать в опросах
Вы не можете прикреплять файлы к сообщениям
Вы не можете скачивать файлы