Ивановский Торрент трекер
Яндекс.Погода
 

[Цитировать]
HUNTER

Space and Earth (эксклюзив) / Космос и Земля
Год выпуска: 2007
Страна: Европа
Жанр: Видовой
Продолжительность: 8 минут
Описание: В видеофильме показывается как космические аппараты помогают людям выживать, познавать окружающий мир
Доп. информация: для более комфортного просмoтра установите кодек Elecard
Качество: DVDScreener
Формат: MPEG
Видео кодек: MPEG2
Аудио кодек: AC3
Видео: 720х576 25fps 5000Kbps 16х9
Аудио: 192Kbps stereo 48000Hz

Скриншоты

MediaInfo

GeneralComplete name : M:\!!!SPACE SPACE SPACE!!!\01.Space\03.Europe\2007 - Space and Earth (эксклюзив) - Космос и Земля\2007 - Space and Earth (эксклюзив) - Космос и Земля.mpgFormat : MPEG-PSFile size : 279 MiBDuration : 8mn 20sOverall bit rate mode : VariableOverall bit rate : 4 685 Kbps
VideoID : 224 (0xE0)Format : MPEG VideoFormat version : Version 2Format profile : Main@MainFormat settings, BVOP : NoFormat settings, Matrix : DefaultFormat settings, GOP : N=15Duration : 8mn 20sBit rate mode : VariableBit rate : 4 400 KbpsMaximum bit rate : 9 000 KbpsWidth : 720 pixelsHeight : 576 pixelsDisplay aspect ratio : 16:9Frame rate : 25.000 fpsStandard : PALColor space : YUVChroma subsampling : 4:2:0Bit depth : 8 bitsScan type : ProgressiveCompression mode : LossyBits/(Pixel*Frame) : 0.424Time code of first frame : 00:00:00:00Time code source : Group of pictures headerStream size : 262 MiB (94%)
AudioID : 189 (0xBD)-128 (0x80)Format : AC-3Format/Info : Audio Coding 3Mode extension : CM (complete main)Format settings, Endianness : BigMuxing mode : DVD-VideoDuration : 8mn 20sBit rate mode : ConstantBit rate : 192 KbpsChannel(s) : 2 channelsChannel positions : Front: L RSampling rate : 48.0 KHzBit depth : 16 bitsCompression mode : LossyStream size : 11.4 MiB (4%)
Menu


Показать сообщения:    

Текущее время: 15-Дек 08:33

Часовой пояс: UTC ± 0


Вы не можете начинать темы
Вы не можете отвечать на сообщения
Вы не можете редактировать свои сообщения
Вы не можете удалять свои сообщения
Вы не можете голосовать в опросах
Вы не можете прикреплять файлы к сообщениям
Вы не можете скачивать файлы

!ВНИМАНИЕ!
Сайт не предоставляет электронные версии произведений, а занимается лишь коллекционированием и каталогизацией ссылок, присылаемых и публикуемых на форуме нашими читателями. Если вы являетесь правообладателем какого-либо представленного материала и не желаете, чтобы ссылка на него находилась в нашем каталоге, свяжитесь с нами, и мы незамедлительно удалим ее. Файлы для обмена на трекере предоставлены пользователями сайта, и администрация не несет ответственности за их содержание. Просьба не заливать файлы, защищенные авторскими правами, а также файлы нелегального содержания!