Ивановский Торрент трекер
Яндекс.Погода
DL-List and Torrent activity
None
 
     
 
 

[Quote]
HUNTER

Сосисочная вечеринка / Полный расколбас / Sausage Party
Страна: США
Жанр: мультфильм, фэнтези, комедия, приключения
Продолжительность: 01:28:45
Год выпуска: 2016
Перевод: Авторский (одноголосый закадровый) Д.Пучков aka Goblin / Гоблин
Субтитры: нет
Оригинальная аудиодорожка: нет
Режиссёр: Грег Тирнан / Greg Tiernan, Конрад Вернон / Conrad Vernon
Роли озвучивали: Сет Роген, Кристен Уиг, Джона Хилл, Дэнни МакБрайд, Майкл Сера, Крэйг Робинсон, Пол Радд, Ник Кролл, Эдвард Нортон, Джеймс Франко, Билл Хейдер, Сальма Хайек
Описание: Первая анимационная комедия для взрослых о невероятных приключениях еды из супермаркета. Съедобным друзьям предстоит получить ответ на главный вопрос: есть ли жизнь за стенами супермаркета, и что же происходит с продуктами после того, как они попадают к людям домой?
Доп. информация: Полный перевод без цензуры!
В фильме присутствует ненормативная лексика
Семпл: http://multi-up.com/1183223
Качество: BDRip [SAUSAGE_PARTY_ | Полный расколбас / Sausage Party (2016) Blu-ray Disc [EUR]]
Формат: AVI
Видео: XviD / 2160 kbps / 704x384 / 23.976 fps
Аудио: AVO Пучков aka Goblin (Rus) / AC3 / 2 ch / 192 kbps / 48 kHz
Субтитры: отсутствуют

MediaInfo

General
Complete name : J:\Torrents\Готовые релизы\Сосисочная вечеринка (2016) BDRip.avi
Format : AVI
Format/Info : Audio Video Interleave
File size : 1.46 GiB
Duration : 1 h 28 min
Overall bit rate : 2 361 kb/s
Writing application : VirtualDubMod 1.5.10.3 | www.virtualdub-fr.org || (build 2550/release)
Writing library : VirtualDubMod build 2550/release
Video
ID : 0
Format : MPEG-4 Visual
Format profile : Advanced Simple@L5
Format settings : BVOP2
Format settings, BVOP : 2
Format settings, QPel : No
Format settings, GMC : No warppoints
Format settings, Matrix : Default (H.263)
Codec ID : XVID
Codec ID/Hint : XviD
Duration : 1 h 28 min
Bit rate : 2 160 kb/s
Width : 704 pixels
Height : 384 pixels
Display aspect ratio : 1.85:1
Frame rate : 23.976 (24000/1001) FPS
Color space : YUV
Chroma subsampling : 4:2:0
Bit depth : 8 bits
Scan type : Progressive
Compression mode : Lossy
Bits/(Pixel*Frame) : 0.333
Stream size : 1.34 GiB (91%)
Writing library : XviD 1.2.1 (UTC 2008-12-04)
Audio
ID : 1
Format : AC-3
Format/Info : Audio Coding 3
Codec ID : 2000
Duration : 1 h 28 min
Bit rate mode : Constant
Bit rate : 192 kb/s
Channel(s) : 2 channels
Channel positions : Front: L R
Sampling rate : 48.0 kHz
Frame rate : 31.250 FPS (1536 SPF)
Bit depth : 16 bits
Compression mode : Lossy
Stream size : 122 MiB (8%)
Alignment : Split accross interleaves
Interleave, duration : 42 ms (1.00 video frame)
Interleave, preload duratio : 500 ms
Service kind : Complete Main

Скриншот c названием фильма

Скриншоты



Display posts:    

Current time is: 13-Nov 22:31

All times are UTC ± 0


You cannot post new topics in this forum
You cannot reply to topics in this forum
You cannot edit your posts in this forum
You cannot delete your posts in this forum
You cannot vote in polls in this forum
You cannot attach files in this forum
You cannot download files in this forum

!ATTENTION!
The site does not give electronic versions of products, and is engaged only in a collecting and cataloguing of the references sent and published at a forum by our readers. If you are the legal owner of any submitted material and do not wish that the reference to it was in our catalogue, contact us and we shall immediately remove her. Files for an exchange on tracker are given by users of a site, and the administration does not bear the responsibility for their maintenance. The request to not fill in the files protected by copyrights, and also files of the illegal maintenance!