Ивановский Торрент трекер
Яндекс.Погода
DL-List and Torrent activity
None
 
     
 
style="text-align: center"
 

[Quote]
Shalun

Солдаты удачи / Soldiers of Fortune- Год выпуска: 2012
Страна: США
Жанр: Боевик
Продолжительность: 01:33:47
Перевод: Дублированный (закадровый) [Звук с TS]-Режиссер:
  • Максим Коростышевский
В ролях:
  • Шон Бин, Кристиан Слэйтер, Доминик Монахэн, Винг Реймз, Джеймс Кромуэлл, Фредди Родригес, Колм Мини, Райан Доноху, Чарли Бьюли, Сара Анн Шультс
-Описание: Миллионеры-адреналиноманы, которые уже взяли от жизни все, но хотят еще большего. Все они: банкир с Уолл-Стрит, гений видео игр, русский алюминиевый магнат, международный торговец оружием и один из основателей мобильной связи. За собственные деньги они отправляются на войну, чтобы почувствовать ее настоящий вкус и получить новую дозу адреналина. Но с самого начала все идет не так. Иллюзия игры рушится, как только миллионеры попадают на остров. При высадке их лодки тонут, а охрана — убита.
- -Качество: HDRip
Формат: AVI
Видео кодек: XviD
Аудио кодек: MP3
Видео: XviD, 1 946 Kbps, 720 x 304, 2.35:1, 23.976 fps
Аудио: MPEG Audio, 2 channels,, 128 Kbps, 48.0 KHz,

MediaInfo:

Общее
Полное имя : C:\Justlan\Солдаты удачи\Soldaty.avi
Формат : AVI
Формат/Информация : Audio Video Interleave
Размер файла : 1,36 Гбайт
Продолжительность : 1 ч. 33 м.
Общий поток : 2083 Кбит/сек
Программа кодирования : VirtualDubMod 1.5.10.2 (build 2540/release)
Библиотека кодирования : VirtualDubMod build 2540/release
Видео
Идентификатор : 0
Формат : MPEG-4 Visual
Профиль формата : Advanced Simple@L5
Параметр BVOP формата : 2
Параметр QPel формата : Нет
Параметр GMC формата : Без точки перехода
Параметр матрицы формата : Default (MPEG)
Идентификатор кодека : XVID
Идентификатор кодека/Подсказка : XviD
Продолжительность : 1 ч. 33 м.
Битрейт : 1946 Кбит/сек
Ширина : 720 пикселей
Высота : 304 пикселя
Соотношение сторон : 2,35:1
Частота кадров : 23,976 кадра/сек
Цветовое пространство : YUV
Субдискретизация насыщенности : 4:2:0
Битовая глубина : 8 бит
Тип развёртки : Прогрессивная
Метод сжатия : С потерями
Бит/(Пиксели*Кадры) : 0.371
Размер потока : 1,27 Гбайт (93%)
Библиотека кодирования : XviD 1.2.1 (UTC 2008-12-04)
Аудио
Идентификатор : 1
Формат : MPEG Audio
Версия формата : Version 1
Профиль формата : Layer 3
Режим : Joint stereo
Идентификатор кодека : 55
Идентификатор кодека/Подсказка : MP3
Продолжительность : 1 ч. 33 м.
Вид битрейта : Постоянный
Битрейт : 128 Кбит/сек
Каналы : 2 канала
Частота : 48,0 КГц
Метод сжатия : С потерями
Размер потока : 85,9 Мбайт (6%)
Выравнивание : Соединение по промежуткам
Продолжительность промежутка : 42 мс. (1,00 видеокадр)
Время предзагрузки промежутка : 504 мс.

Скриншоты

-


Display posts:    

Current time is: 23-Aug 01:16

All times are UTC ± 0


You cannot post new topics in this forum
You cannot reply to topics in this forum
You cannot edit your posts in this forum
You cannot delete your posts in this forum
You cannot vote in polls in this forum
You cannot attach files in this forum
You cannot download files in this forum

!ATTENTION!
The site does not give electronic versions of products, and is engaged only in a collecting and cataloguing of the references sent and published at a forum by our readers. If you are the legal owner of any submitted material and do not wish that the reference to it was in our catalogue, contact us and we shall immediately remove her. Files for an exchange on tracker are given by users of a site, and the administration does not bear the responsibility for their maintenance. The request to not fill in the files protected by copyrights, and also files of the illegal maintenance!