Ивановский Торрент трекер
Яндекс.Погода
 

[Цитировать]
HUNTER

Наша группа ВКонтакте
Присоединяйтесь!
-Снайпер: Идеальное убийство
Sniper: Ultimate Kill
«This time, weapons change the game»

Страна: США
Жанр: боевик, триллер, драма
Год выпуска: 2017
Продолжительность: 01:33:18
Перевод: Профессиональный (многоголосый, закадровый) [Blu-ray EUR]
Субтитры: русские (полные)
Оригинальная аудиодорожка: нет
Режиссер: Клаудио Фах / Claudio Fäh
В ролях: Билли Зейн, Том Беренджер, Денай Гарсиа, Джо Ландо, Хуан Себастьян Калеро, Чад Коллинз, Хуан Пабло Гамбоа, Фелипе Калеро, Лучо Веласко
Описание:
Глава колумбийского наркокартеля объединят в своих руках все каналы доставки наркотиков в США. Его врагов уничтожает суперснайпер по кличке «Дьявол». Агентство по борьбе с наркотиками отправляет на борьбу с ними спецагента под прикрытием, опытного снайпера из морской разведки.

Релиз:
Автор рипа: stalkerok
Сэмпл
Качество видео: BDRip-AVC [Sniper: Ultimate Kill (2017) Blu-ray EUR 1080p]
Формат видео: MKV
Видео кодек: AVC
Аудио кодек: AC3
Видео: 1804 Кбит/сек, 912x380 (2.40:1), 23,976 кадр/сек, AVC
Аудио: русский, 448 Кбит/сек, 48 КГц, 5.1, AC3
Навигация по главам: есть

x264/MediaInfo

x264 [info]: frame I:1171 Avg QP:17.84 size: 49184
x264 [info]: frame P:27502 Avg QP:19.99 size: 19968
x264 [info]: frame B:105557 Avg QP:21.49 size: 6212
General
Unique ID : 238482172510966482151352725588642981463 (0xB369FEE7C6F612A1ACCDF9AD717D6657)
Complete name : M:!Rips2017Sniper Ultimate KillSniper.Ultimate.Kill.2017.BDRip-AVC.RUS.stalkerok.new-team.mkv
Format : Matroska
Format version : Version 4 / Version 2
File size : 1.47 GiB
Duration : 1 h 33 min
Overall bit rate : 2 254 kb/s
Movie name : Sniper: Ultimate Kill (2017) (Rip by stalkerok)
Encoded date : UTC 2017-10-11 20:41:11
Writing application : mkvmerge v8.6.1 ('Flying') 64bit
Writing library : libebml v1.3.3 + libmatroska v1.4.4
Video
ID : 1
Format : AVC
Format/Info : Advanced Video Codec
Format profile : High@L4.1
Format settings, CABAC : Yes
Format settings, ReFrames : 14 frames
Codec ID : V_MPEG4/ISO/AVC
Duration : 1 h 33 min
Bit rate : 1 804 kb/s
Width : 912 pixels
Height : 380 pixels
Display aspect ratio : 2.40:1
Frame rate mode : Constant
Frame rate : 23.976 (24000/1001) FPS
Color space : YUV
Chroma subsampling : 4:2:0
Bit depth : 8 bits
Scan type : Progressive
Bits/(Pixel*Frame) : 0.217
Stream size : 1.18 GiB (80%)
Title : Sniper: Ultimate Kill (2017) (Rip by stalkerok)
Writing library : x264 core 150 r2833kMod df79067
Encoding settings : cabac=1 / ref=14 / deblock=1:-3:-2 / analyse=0x3:0x133 / me=umh / subme=11 / psy=1 / fade_compensate=0.00 / psy_rd=1.00:0.00 / mixed_ref=1 / me_range=32 / chroma_me=1 / trellis=2 / 8x8dct=1 / cqm=0 / deadzone=21,11 / fast_pskip=0 / chroma_qp_offset=-2 / threads=12 / lookahead_threads=2 / sliced_threads=0 / nr=0 / decimate=1 / interlaced=0 / bluray_compat=0 / constrained_intra=0 / bframes=14 / b_pyramid=2 / b_adapt=2 / b_bias=0 / direct=3 / weightb=1 / open_gop=0 / weightp=2 / keyint=240 / keyint_min=23 / scenecut=40 / intra_refresh=0 / rc_lookahead=60 / rc=crf / mbtree=0 / crf=18.7000 / qcomp=0.65 / qpmin=0 / qpmax=69 / qpstep=4 / vbv_maxrate=50000 / vbv_bufsize=62500 / crf_max=0.0 / nal_hrd=none / filler=0 / ip_ratio=1.40 / pb_ratio=1.30 / aq=3:0.80 / zones=129824,134229,q=33
Default : Yes
Forced : No
Audio
ID : 2
Format : AC-3
Format/Info : Audio Coding 3
Mode extension : CM (complete main)
Format settings, Endianness : Big
Codec ID : A_AC3
Duration : 1 h 33 min
Bit rate mode : Constant
Bit rate : 448 kb/s
Channel(s) : 6 channels
Channel positions : Front: L C R, Side: L R, LFE
Sampling rate : 48.0 kHz
Frame rate : 31.250 FPS (1536 spf)
Compression mode : Lossy
Stream size : 299 MiB (20%)
Language : Russian
Default : Yes
Forced : No
Text
ID : 3
Format : UTF-8
Codec ID : S_TEXT/UTF8
Codec ID/Info : UTF-8 Plain Text
Duration : 1 h 25 min
Bit rate : 75 b/s
Count of elements : 927
Stream size : 47.1 KiB (0%)
Language : Russian
Default : No
Forced : No
Menu
00:00:00.000 : en:Chapter 1
00:04:19.634 : en:Chapter 2
00:09:10.258 : en:Chapter 3
00:16:38.956 : en:Chapter 4
00:26:19.828 : en:Chapter 5
00:31:34.559 : en:Chapter 6
00:37:23.241 : en:Chapter 7
00:44:08.771 : en:Chapter 8
00:48:09.928 : en:Chapter 9
00:51:42.307 : en:Chapter 10
00:56:47.320 : en:Chapter 11
01:04:21.232 : en:Chapter 12
01:11:19.400 : en:Chapter 13
01:15:25.395 : en:Chapter 14
01:19:42.778 : en:Chapter 15
01:25:53.898 : en:Chapter 16

Показать сообщения:    

Текущее время: 20-Окт 11:37

Часовой пояс: UTC - 1


Вы не можете начинать темы
Вы не можете отвечать на сообщения
Вы не можете редактировать свои сообщения
Вы не можете удалять свои сообщения
Вы не можете голосовать в опросах
Вы не можете прикреплять файлы к сообщениям
Вы не можете скачивать файлы

!ВНИМАНИЕ!
Сайт не предоставляет электронные версии произведений, а занимается лишь коллекционированием и каталогизацией ссылок, присылаемых и публикуемых на форуме нашими читателями. Если вы являетесь правообладателем какого-либо представленного материала и не желаете, чтобы ссылка на него находилась в нашем каталоге, свяжитесь с нами, и мы незамедлительно удалим ее. Файлы для обмена на трекере предоставлены пользователями сайта, и администрация не несет ответственности за их содержание. Просьба не заливать файлы, защищенные авторскими правами, а также файлы нелегального содержания!