Ивановский Торрент трекер
Яндекс.Погода
 

[Quote]
HUNTER

Смешарики. Новый сезон- Страна: Россия
Жанр: мультфильм, детский
Продолжительность серии: 00:06:39
Год выпуска: 2020
Перевод: Не требуется
Русские субтитры: нет-Режиссёр: Денис Чернов, Алексей Горбунов
Роли озвучивали: Вадим Бочанов, Антон Виноградов, Сергей Мардарь, Владимир Постников, Светлана Письмиченко, Михаил Черняк, Владимир Маслаков, Максим Сергеев, Игорь Яковель, Денис Чернов- | Релиз: -Описание: Истории о дружбе и приключениях обаятельных круглых героев. Весёлые и музыкальные, неожиданные и мечтательные, домашние и авантюрные. Целый мир в одной уютной ромашковой долине. Мультсериал для всех!-Семпл: http://sendfile.su/1564475-Качество: WEB-DL 1080p
Формат: MKV
Видео: 1920x1080 (16:9), 25.000 fps, AVC, 4170 kbps
Аудио: Русский, 48.0 KHz, AAC LC, 2 ch, 253 kbps
Субтитры: отсутствуют

Список серий

01. Природное свойство.
02. Спокойной ночи.
03. Мастер и земляника.
04. Сплетники.
05. Рок-опера и что-то ещё.
06. Пинляндия.
07. Великий мимикрятор.
08. Вальхалла.
09. Любимяй внук.
10. Домашнее животное.
11. Фан-клуб Козетты.
12. Фонтан.
-

Подробные технические данные

General
Unique ID : 82750120108020779992462321395456053406 (0x3E4117EA7D2D3DCDCD818C9D9C98909E)
Complete name : 01. Природное свойство.mkv
Format : Matroska
Format version : Version 4
File size : 210 MiB
Duration : 6 min 39 s
Overall bit rate : 4 425 kb/s
Encoded date : UTC 2020-06-08 12:25:36
Writing application : mkvmerge v43.0.0 ('The Quartermaster') 64-bit
Writing library : libebml v1.3.10 + libmatroska v1.5.2
Video
ID : 1
Format : AVC
Format/Info : Advanced Video Codec
Format profile : [email protected]
Format settings : CABAC / 4 Ref Frames
Format settings, CABAC : Yes
Format settings, Reference frames : 4 frames
Codec ID : V_MPEG4/ISO/AVC
Duration : 6 min 39 s
Bit rate : 4 170 kb/s
Nominal bit rate : 5 000 kb/s
Width : 1 920 pixels
Height : 1 080 pixels
Display aspect ratio : 16:9
Frame rate mode : Constant
Frame rate : 25.000 FPS
Color space : YUV
Chroma subsampling : 4:2:0
Bit depth : 8 bits
Scan type : Progressive
Bits/(Pixel*Frame) : 0.080
Stream size : 198 MiB (94%)
Writing library : x264 core 148 r2721 72d53ab
Encoding settings : cabac=1 / ref=4 / deblock=1:0:0 / analyse=0x3:0x133 / me=umh / subme=10 / psy=1 / psy_rd=1.00:0.00 / mixed_ref=1 / me_range=24 / chroma_me=1 / trellis=2 / 8x8dct=1 / cqm=0 / deadzone=21,11 / fast_pskip=1 / chroma_qp_offset=-2 / threads=34 / lookahead_threads=5 / sliced_threads=0 / nr=0 / decimate=1 / interlaced=0 / bluray_compat=0 / constrained_intra=0 / bframes=8 / b_pyramid=2 / b_adapt=2 / b_bias=0 / direct=3 / weightb=1 / open_gop=0 / weightp=2 / keyint=100 / keyint_min=50 / scenecut=40 / intra_refresh=0 / rc_lookahead=60 / rc=2pass / mbtree=1 / bitrate=5000 / ratetol=1.0 / qcomp=0.60 / qpmin=0 / qpmax=69 / qpstep=4 / cplxblur=20.0 / qblur=0.5 / vbv_maxrate=5500 / vbv_bufsize=2500 / nal_hrd=none / filler=0 / ip_ratio=1.40 / aq=1:1.00
Default : Yes
Forced : No
Audio
ID : 2
Format : AAC LC
Format/Info : Advanced Audio Codec Low Complexity
Codec ID : A_AAC-2
Duration : 6 min 39 s
Bit rate : 253 kb/s
Channel(s) : 2 channels
Channel layout : L R
Sampling rate : 48.0 kHz
Frame rate : 46.875 FPS (1024 SPF)
Compression mode : Lossy
Stream size : 12.0 MiB (6%)
Language : Russian
Default : Yes
Forced : No
Предыдущие и альтернативные раздачи


Display posts:    

Current time is: 05-Jul 13:01

All times are UTC ± 0


You cannot post new topics in this forum
You cannot reply to topics in this forum
You cannot edit your posts in this forum
You cannot delete your posts in this forum
You cannot vote in polls in this forum
You cannot attach files in this forum
You cannot download files in this forum

!ATTENTION!
The site does not give electronic versions of products, and is engaged only in a collecting and cataloguing of the references sent and published at a forum by our readers. If you are the legal owner of any submitted material and do not wish that the reference to it was in our catalogue, contact us and we shall immediately remove her. Files for an exchange on tracker are given by users of a site, and the administration does not bear the responsibility for their maintenance. The request to not fill in the files protected by copyrights, and also files of the illegal maintenance!