Ивановский Торрент трекер
Яндекс.Погода
DL-List and Torrent activity
None
 
     
 
style="text-align: center"
 

[Quote]
HUNTER

Смерть скачет на коне / Da uomo a uomo
Страна: Италия
Жанр: вестерн
Год выпуска: 1967
Продолжительность: 01:54:57
Перевод: Профессиональный (многоголосый закадровый) Спб, 5 канал
Перевод 2: Профессиональный (двухголосый закадровый) HTB+
Перевод 3: Авторский (одноголосый закадровый) Сергей Кузнецов
Субтитры: английские
Оригинальная аудиодорожка: итальянский
Режиссер: Джулио Петрони / Giulio Petroni
В ролях: Ли Ван Клиф, Джон Филлип Лоу, Марио Брега, Энтони Доусон, Франко Бальдуччи, Бруно Кораццари, Феличита Фанни, Игнацио Леоне
Описание: Бандиты убивают всех жителей ранчо. Всех, за исключением маленького мальчика. Прошло пятнадцать лет, мальчик вырос, но не оставил мысль наказать убийц. В это же время из тюрьмы освобождается Райан, один из участников нападения, преданый своими подельниками. Они встречаются объединяемые одной целью - мстить...
Сэмпл: https://yadi.sk/i/iHuodhhv3RSbkF

Тип релиза: BDRip 720p
Контейнер: MKV
Видео: 1280x546 (2.35:1), 23.976 fps, AVC, ~5167 Kbps, 0.308 bits/pixel
Аудио: Russian, 48.0 KHz, AC3, 2 ch, 192 Kbps - Многоголосый закадровый - Спб, 5 канал
Аудио 2: Russian, 48.0 KHz, AC3, 2 ch, 192 Kbps - Двухголосый закадровый - HTB+
Аудио 3: Russian, 48.0 KHz, AC3, 2 ch, 192 Kbps - Сергей Кузнецов
Аудио 4: Ukrainian, 48.0 KHz, AC3, 2 ch, 192 Kbps - Многоголосый закадровый - AMC
Аудио 5: Italian, 48.0 KHz, AC3, 2 ch, 128 Kbps - original
Формат субтитров: softsub (SRT)

MediaInfo

Общее
Уникальный идентификатор : 232518287835079774124103025753780812913 (0xAEED64B05A327D9F84CA82FBE4027C71)
Полное имя : D:\Da.uomo.a.uomo.1967.BDRip.720p.3xRus.Ukr.Ita.mkv
Формат : Matroska
Версия формата : Version 4 / Version 2
Размер файла : 4,97 Гбайт
Продолжительность : 1 ч. 54 м.
Общий поток : 6186 Кбит/сек
Название фильма : Rip by msltel
Дата кодирования : UTC 2018-01-24 06:36:35
Программа кодирования : mkvmerge v7.9.0 ('Birds') 64bit
Библиотека кодирования : libebml v1.3.1 + libmatroska v1.4.2
Видео
Идентификатор : 1
Формат : AVC
Формат/Информация : Advanced Video Codec
Профиль формата : High@L4.1
Параметр CABAC формата : Да
Параметр RefFrames формата : 9 кадров
Идентификатор кодека : V_MPEG4/ISO/AVC
Продолжительность : 1 ч. 54 м.
Битрейт : 5287 Кбит/сек
Ширина : 1280 пикселей
Высота : 546 пикселей
Соотношение сторон : 2,35:1
Режим частоты кадров : Постоянный
Частота кадров : 23,976 (24000/1001) кадра/сек
Цветовое пространство : YUV
Субдискретизация насыщенности : 4:2:0
Битовая глубина : 8 бит
Тип развёртки : Прогрессивная
Бит/(Пиксели*Кадры) : 0.316
Размер потока : 4,25 Гбайт (85%)
Библиотека кодирования : x264 core 146 r2538 121396c
Настройки программы : cabac=1 / ref=9 / deblock=1:-3:-2 / analyse=0x3:0x113 / me=umh / subme=11 / psy=1 / psy_rd=1.00:0.15 / mixed_ref=1 / me_range=32 / chroma_me=1 / trellis=2 / 8x8dct=1 / cqm=0 / deadzone=21,11 / fast_pskip=0 / chroma_qp_offset=-3 / threads=6 / lookahead_threads=1 / sliced_threads=0 / nr=0 / decimate=1 / interlaced=0 / bluray_compat=0 / constrained_intra=0 / bframes=11 / b_pyramid=2 / b_adapt=2 / b_bias=0 / direct=1 / weightb=1 / open_gop=0 / weightp=2 / keyint=230 / keyint_min=23 / scenecut=40 / intra_refresh=0 / rc_lookahead=40 / rc=crf / mbtree=0 / crf=18.6 / qcomp=0.60 / qpmin=0 / qpmax=69 / qpstep=4 / vbv_maxrate=62500 / vbv_bufsize=78125 / crf_max=0.0 / nal_hrd=none / filler=0 / ip_ratio=1.40 / pb_ratio=1.30 / aq=1:1.00
Язык : Italian
Default : Да
Forced : Нет
Аудио #1
Идентификатор : 2
Формат : AC-3
Формат/Информация : Audio Coding 3
Параметр Endianness формата : Big
Идентификатор кодека : A_AC3
Продолжительность : 1 ч. 54 м.
Вид битрейта : Постоянный
Битрейт : 192 Кбит/сек
Каналы : 2 канала
Расположение каналов : Front: L R
Частота : 48,0 КГц
Частота кадров : 31,250 кадров/сек (1536 SPF)
Битовая глубина : 16 бит
Метод сжатия : С потерями
Размер потока : 158 Мбайт (3%)
Заголовок : Многоголосый закадровый - Спб, 5 канал
Язык : Russian
ServiceKind/String : Complete Main
Default : Да
Forced : Нет
Аудио #2
Идентификатор : 3
Формат : AC-3
Формат/Информация : Audio Coding 3
Параметр Endianness формата : Big
Идентификатор кодека : A_AC3
Продолжительность : 1 ч. 54 м.
Вид битрейта : Постоянный
Битрейт : 192 Кбит/сек
Каналы : 2 канала
Расположение каналов : Front: L R
Частота : 48,0 КГц
Частота кадров : 31,250 кадров/сек (1536 SPF)
Битовая глубина : 16 бит
Метод сжатия : С потерями
Размер потока : 158 Мбайт (3%)
Заголовок : Двухголосый закадровый - HTB+
Язык : Russian
ServiceKind/String : Complete Main
Default : Нет
Forced : Нет
Аудио #3
Идентификатор : 4
Формат : AC-3
Формат/Информация : Audio Coding 3
Параметр Endianness формата : Big
Идентификатор кодека : A_AC3
Продолжительность : 1 ч. 54 м.
Вид битрейта : Постоянный
Битрейт : 192 Кбит/сек
Каналы : 2 канала
Расположение каналов : Front: L R
Частота : 48,0 КГц
Частота кадров : 31,250 кадров/сек (1536 SPF)
Битовая глубина : 16 бит
Метод сжатия : С потерями
Размер потока : 158 Мбайт (3%)
Заголовок : Авторский - Сергей Кузнецов
Язык : Russian
ServiceKind/String : Complete Main
Default : Нет
Forced : Нет
Аудио #4
Идентификатор : 5
Формат : AC-3
Формат/Информация : Audio Coding 3
Параметр Endianness формата : Big
Идентификатор кодека : A_AC3
Продолжительность : 1 ч. 54 м.
Вид битрейта : Постоянный
Битрейт : 192 Кбит/сек
Каналы : 2 канала
Расположение каналов : Front: L R
Частота : 48,0 КГц
Частота кадров : 31,250 кадров/сек (1536 SPF)
Битовая глубина : 16 бит
Метод сжатия : С потерями
Размер потока : 158 Мбайт (3%)
Заголовок : Многоголосый закадровый - AMC
Язык : Ukrainian
ServiceKind/String : Complete Main
Default : Нет
Forced : Нет
Аудио #5
Идентификатор : 6
Формат : AC-3
Формат/Информация : Audio Coding 3
Параметр Endianness формата : Big
Идентификатор кодека : A_AC3
Продолжительность : 1 ч. 54 м.
Вид битрейта : Постоянный
Битрейт : 128 Кбит/сек
Каналы : 2 канала
Расположение каналов : Front: L R
Частота : 48,0 КГц
Частота кадров : 31,250 кадров/сек (1536 SPF)
Битовая глубина : 16 бит
Метод сжатия : С потерями
Размер потока : 105 Мбайт (2%)
Заголовок : original
Язык : Italian
ServiceKind/String : Complete Main
Default : Нет
Forced : Нет
Текст
Идентификатор : 7
Формат : UTF-8
Идентификатор кодека : S_TEXT/UTF8
Идентификатор кодека/Информация : UTF-8 Plain Text
Продолжительность : 1 ч. 53 м.
Битрейт : 24 бит/сек
ElementCount : 554
Размер потока : 20,7 Кбайт (0%)
Язык : English
Default : Нет
Forced : Нет
Меню
00:00:00.000 : :Chapter 01
00:09:11.801 : :Chapter 02
00:17:38.307 : :Chapter 03
00:26:57.866 : :Chapter 04
00:36:05.913 : :Chapter 05
00:45:07.162 : :Chapter 06
00:51:28.668 : :Chapter 07
01:03:50.409 : :Chapter 08
01:11:55.769 : :Chapter 09
01:26:01.239 : :Chapter 10
01:40:56.508 : :Chapter 11
01:54:56.890 : :Chapter 12

Скриншоты



Display posts:    

Current time is: 16-Sep 08:39

All times are UTC ± 0


You cannot post new topics in this forum
You cannot reply to topics in this forum
You cannot edit your posts in this forum
You cannot delete your posts in this forum
You cannot vote in polls in this forum
You cannot attach files in this forum
You cannot download files in this forum

!ATTENTION!
The site does not give electronic versions of products, and is engaged only in a collecting and cataloguing of the references sent and published at a forum by our readers. If you are the legal owner of any submitted material and do not wish that the reference to it was in our catalogue, contact us and we shall immediately remove her. Files for an exchange on tracker are given by users of a site, and the administration does not bear the responsibility for their maintenance. The request to not fill in the files protected by copyrights, and also files of the illegal maintenance!