Важное объявление!
У Нас Все раздачи мультитрекерные, при нуле пиров в релизах, можете смело вставать на закачку!
 
Автор Сообщение

HUNTER

Стаж:
4 года 4 месяца
Сообщений:
56734

Репутация: 101

[+] [-]
Вне форума [Профиль] [ЛС]

Slaves to Passion / Pretty Slave Huanuli / Hana Dorei / Рабыни страсти
Год выпуска: 2001
Страна: Япония
Жанр: bondage, torture, anal, housewives, oral
Цензура: Отсутствует
Продолжительность: 2 эпизода по ~30 минут
Озвучивание: Любительский (двухголосый закадровый), ZM & Viki
Субтитры: Отсутствуют-Описание: Это история о талантливом художнике Джуичиро, который ищет изящество в своих работах, своем доме, а более всего - в своей изящной жене. В поисках вдохновения его талант приводит к жажде S&M игр, связыванию, причинению боли своей женщине. Ученик Джуичиро, Каору, завидует своему мастеру - не только из-за его артистических навыков, но также и из-за его источника их вдохновения: красивой и сексапильной жены Джуичиро - Рейко. И когда Джуичиро внезапно умирает, Каору решает, что вдова покойного мастера теперь свободно от данных мужу обещаний и может воплотить всего его извращенные сексуальной фантазии. Станут ли садистские желания Рейки ключом к реализации художественных талантов Каору, или он станет всего лишь рабом страстиРелиз подготовлен группой:
&
Качество: DVDRip
Формат: AVI
Видео кодек: XviD
Аудио кодек: MP3
Видео: 640x480 (1.33:1), 25 fps, XviD build 50 ~696 kbps avg, 0.09 bit/pixel
Аудио: 48 kHz, MPEG Layer 3, 2 ch, ~121.10 kbps avg

MI

C:\ZM\Hana Dorei (Shiza & ZM-Show)\Hana Dorei ep.1(Shiza & ZM-Show).avi
General
Complete name : C:\ZM\Hana Dorei (Shiza & ZM-Show)\Hana Dorei ep.1(Shiza & ZM-Show).avi
Format : AVI
Format/Info : Audio Video Interleave
File size : 175 MiB
Duration : 29mn 27s
Overall bit rate mode : Variable
Overall bit rate : 831 Kbps
Writing application : MEncoder Sherpya-SVN-r32492-4.2.5
Writing library : MPlayer
Video #0
ID : 0
Format : MPEG-4 Visual
Format profile : Simple@L3
Format settings, BVOP : No
Format settings, QPel : No
Format settings, GMC : No warppoints
Format settings, Matrix : Default (H.263)
Codec ID : XVID
Codec ID/Hint : XviD
Duration : 29mn 27s
Bit rate : 697 Kbps
Width : 640 pixels
Height : 480 pixels
Display aspect ratio : 4:3
Frame rate : 25.000 fps
Color space : YUV
Chroma subsampling : 4:2:0
Bit depth : 8 bits
Scan type : Progressive
Compression mode : Lossy
Bits/(Pixel*Frame) : 0.091
Stream size : 147 MiB (84%)
Writing library : XviD 1.2.1 (UTC 2008-12-04)
Audio #1
ID : 1
Format : MPEG Audio
Format version : Version 1
Format profile : Layer 3
Mode : Joint stereo
Mode extension : MS Stereo
Codec ID : 55
Codec ID/Hint : MP3
Duration : 29mn 27s
Bit rate mode : Variable
Bit rate : 121 Kbps
Channel(s) : 2 channels
Sampling rate : 48.0 KHz
Compression mode : Lossy
Stream size : 25.5 MiB (15%)
Alignment : Aligned on interleaves
Interleave, duration : 24 ms (0.60 video frame)
Interleave, preload duration : 133 ms
Writing library : LAME3.98.4

Скриншоты

Episode 01

Episode 02


_________________
Показать сообщения:    

Текущее время: Сегодня 09:31

Часовой пояс: GMT



Вы не можете начинать темы
Вы не можете отвечать на сообщения
Вы не можете редактировать свои сообщения
Вы не можете удалять свои сообщения
Вы не можете голосовать в опросах
Вы не можете прикреплять файлы к сообщениям
Вы не можете скачивать файлы