Ивановский Торрент трекер
Яндекс.Погода
 

[Quote]
HUNTER

Скуби-Ду / Scoob!«Хвост всему голова»- Страна: США
Production Co: Warner Bros., Warner Animation Group, Hanna-Barbera Productions
Жанр: мультфильм, комедия, детектив, приключения, семейный
Продолжительность: 01:33:46
Год выпуска: 2020
Перевод: Любительский (многоголосый закадровый) [HDRezka Studio]
Перевод 2: Любительский (многоголосый закадровый) [Flarrow Films]
Перевод 3: Любительский (многоголосый закадровый) [NewComers]
Cубтитры: Rus (Full FOCS), Eng (Full, SDH), Fra (Full)-Режиссёр: Тони Червоне / Tony Cervone
Роли озвучивали: Фрэнк Уэлкер, Уилл Форте, Иэн Армитидж, Аманда Сейфрид, Маккенна Грейс, Зак Эфрон, Пирс Ганьон, Джина Родригес, Ариана Гринблатт-Описание:Скуби-Ду возвращается на большие экраны! Новый полнометражный мультфильм о знаменитой собаке и команде друзей-детективов,
которые разоблачают «сверхъестественные» явления, служащие ширмой для чьих-то преступных планов. Скуби, Шэгги и их друзьям предстоит идти по
следу Дика Дастардли, совершающего одно злодеяние за другим.
-
«Скуби-Ду» (англ. Scoob) — американский компьютерно-анимационный комедийный фильм режиссёра Тони Червоне, производства Warner Animation Group, основанный на франшизе Scooby-Doo-Релиз:


imdb 5,7/10 11 297
Sample-Качество: BDRip-AVC | | Scoob! 2020 1080p Blu-ray Remux AVC DTS-HD MA 5.1-E.N.D
Формат: MKV
Видео: AVC 3464 kb/s 1104 x 462 (2.390) 23.976 fps
Аудио 1: AC-3 448 kb/s 6 channels, 48.0 kH (Russian) [HDRezka Studio]
Аудио 2: AC-3 384 kb/s 6 channels, 48.0 kH (Russian) [Flarrow Films]
Аудио 3: AC-3 384 kb/s 6 channels, 48.0 kH (Russian) [NewComers]
Аудио 4: AC-3 448 kb/s 6 channels, 48.0 kH (English)
Субтитры: Rus, Eng, Fra

MI | Log

Log

x264 [info]: frame I:1389 Avg QP:14.64 size: 99637
x264 [info]: frame P:33129 Avg QP:16.56 size: 35918
x264 [info]: frame B:100384 Avg QP:19.53 size: 11036
x264 [info]: consecutive B-frames: 3.6% 3.2% 11.0% 32.7% 18.2% 23.5% 3.8% 1.8% 1.3% 0.9%
x264 [info]: mb I I16..4: 8.0% 63.9% 28.1%
x264 [info]: mb P I16..4: 0.9% 12.0% 3.1% P16..4: 26.2% 32.7% 15.4% 4.2% 0.7% skip: 4.9%
x264 [info]: mb B I16..4: 0.1% 1.3% 0.3% B16..8: 30.4% 24.1% 5.6% direct: 6.0% skip:32.2% L0:42.6% L1:39.2% BI:18.2%
x264 [info]: 8x8 transform intra:73.0% inter:50.6%
x264 [info]: direct mvs spatial:99.9% temporal:0.1%
x264 [info]: coded y,uvDC,uvAC intra: 93.3% 97.1% 91.8% inter: 23.5% 29.6% 17.1%
x264 [info]: i16 v,h,dc,p: 9% 16% 5% 70%
x264 [info]: i8 v,h,dc,ddl,ddr,vr,hd,vl,hu: 9% 11% 7% 9% 12% 12% 13% 12% 15%
x264 [info]: i4 v,h,dc,ddl,ddr,vr,hd,vl,hu: 9% 11% 4% 9% 15% 14% 14% 11% 13%
x264 [info]: i8c dc,h,v,p: 44% 21% 16% 19%
x264 [info]: Weighted P-Frames: Y:5.3% UV:3.5%
x264 [info]: ref P L0: 47.9% 11.5% 15.9% 6.5% 4.9% 3.5% 3.1% 1.8% 1.6% 1.6% 1.5% 0.1% 0.0%
x264 [info]: ref B L0: 72.3% 11.2% 6.0% 3.2% 2.1% 1.7% 1.6% 1.0% 0.6% 0.4%
x264 [info]: ref B L1: 94.1% 5.9%
x264 [info]: kb/s:3463.77
x264 [total]: encoded 134902 frames, 16.29 fps, 3463.77 kb/s
Format : Matroska
Format version : Version 4
File size : 3.36 GiB
Duration : 1 h 33 min
Overall bit rate : 5 131 kb/s
Movie name : Scoob! (2020).[rutracker.org]
Encoded date : UTC 2020-07-30 10:41:45
Writing application : mkvmerge v8.2.0 ('World of Adventure') 64bit
Writing library : libebml v1.3.1 + libmatroska v1.4.2
Video
ID : 1
Format : AVC
Format/Info : Advanced Video Codec
Format profile : [email protected]
Format settings : CABAC / 11 Ref Frames
Format settings, CABAC : Yes
Format settings, Reference frames : 11 frames
Codec ID : V_MPEG4/ISO/AVC
Duration : 1 h 33 min
Bit rate : 3 464 kb/s
Width : 1 104 pixels
Height : 462 pixels
Display aspect ratio : 2.40:1
Frame rate mode : Constant
Frame rate : 23.976 (24000/1001) FPS
Color space : YUV
Chroma subsampling : 4:2:0
Bit depth : 8 bits
Scan type : Progressive
Bits/(Pixel*Frame) : 0.283
Stream size : 2.27 GiB (68%)
Title : Scoob! (2020).[rutracker.org]
Writing library : x264 core 160 r3000 33f9e14
Encoding settings : cabac=1 / ref=11 / deblock=1:-3:-2 / analyse=0x3:0x133 / me=umh / subme=11 / psy=1 / psy_rd=1.00:0.05 / mixed_ref=1 / me_range=32 / chroma_me=1 / trellis=2 / 8x8dct=1 / cqm=0 / deadzone=21,11 / fast_pskip=0 / chroma_qp_offset=-3 / threads=12 / lookahead_threads=2 / sliced_threads=0 / nr=0 / decimate=1 / interlaced=0 / bluray_compat=0 / constrained_intra=0 / bframes=9 / b_pyramid=2 / b_adapt=2 / b_bias=0 / direct=3 / weightb=1 / open_gop=0 / weightp=2 / keyint=250 / keyint_min=23 / scenecut=40 / intra_refresh=0 / rc_lookahead=60 / rc=crf / mbtree=0 / crf=16.3 / qcomp=0.60 / qpmin=0 / qpmax=69 / qpstep=4 / vbv_maxrate=50000 / vbv_bufsize=62500 / crf_max=0.0 / nal_hrd=none / filler=0 / ip_ratio=1.40 / pb_ratio=1.30 / aq=3:0.90
Language : English
Default : Yes
Forced : No
Audio #1
ID : 2
Format : AC-3
Format/Info : Audio Coding 3
Commercial name : Dolby Digital
Codec ID : A_AC3
Duration : 1 h 33 min
Bit rate mode : Constant
Bit rate : 448 kb/s
Channel(s) : 6 channels
Channel layout : L R C LFE Ls Rs
Sampling rate : 48.0 kHz
Frame rate : 31.250 FPS (1536 SPF)
Bit depth : 16 bits
Compression mode : Lossy
Stream size : 300 MiB (9%)
Title : MVO-HDRezka
Language : Russian
Service kind : Complete Main
Default : Yes
Forced : No
Audio #2
ID : 3
Format : AC-3
Format/Info : Audio Coding 3
Commercial name : Dolby Digital
Codec ID : A_AC3
Duration : 1 h 33 min
Bit rate mode : Constant
Bit rate : 384 kb/s
Channel(s) : 6 channels
Channel layout : L R C LFE Ls Rs
Sampling rate : 48.0 kHz
Frame rate : 31.250 FPS (1536 SPF)
Bit depth : 16 bits
Compression mode : Lossy
Stream size : 257 MiB (7%)
Title : MVO-Flarrow Films
Language : Russian
Service kind : Complete Main
Default : No
Forced : No
Audio #3
ID : 4
Format : AC-3
Format/Info : Audio Coding 3
Commercial name : Dolby Digital
Codec ID : A_AC3
Duration : 1 h 33 min
Bit rate mode : Constant
Bit rate : 384 kb/s
Channel(s) : 6 channels
Channel layout : L R C LFE Ls Rs
Sampling rate : 48.0 kHz
Frame rate : 31.250 FPS (1536 SPF)
Bit depth : 16 bits
Compression mode : Lossy
Stream size : 257 MiB (7%)
Title : MVO-NewComers
Language : Russian
Service kind : Complete Main
Default : No
Forced : No
Audio #4
ID : 5
Format : AC-3
Format/Info : Audio Coding 3
Commercial name : Dolby Digital
Codec ID : A_AC3
Duration : 1 h 33 min
Bit rate mode : Constant
Bit rate : 448 kb/s
Channel(s) : 6 channels
Channel layout : L R C LFE Ls Rs
Sampling rate : 48.0 kHz
Frame rate : 31.250 FPS (1536 SPF)
Bit depth : 16 bits
Compression mode : Lossy
Stream size : 300 MiB (9%)
Title : Original
Language : English
Service kind : Complete Main
Default : No
Forced : No
Text #1
ID : 6
Format : UTF-8
Codec ID : S_TEXT/UTF8
Codec ID/Info : UTF-8 Plain Text
Duration : 1 h 29 min
Bit rate : 107 b/s
Count of elements : 1494
Stream size : 70.0 KiB (0%)
Title : Full (FOCS)
Language : Russian
Default : No
Forced : No
Text #2
ID : 7
Format : UTF-8
Codec ID : S_TEXT/UTF8
Codec ID/Info : UTF-8 Plain Text
Duration : 1 h 31 min
Bit rate : 68 b/s
Count of elements : 1508
Stream size : 46.1 KiB (0%)
Title : Full
Language : English
Default : No
Forced : No
Text #3
ID : 8
Format : UTF-8
Codec ID : S_TEXT/UTF8
Codec ID/Info : UTF-8 Plain Text
Duration : 1 h 31 min
Bit rate : 82 b/s
Count of elements : 1885
Stream size : 55.5 KiB (0%)
Title : SDH
Language : English
Default : No
Forced : No
Text #4
ID : 9
Format : UTF-8
Codec ID : S_TEXT/UTF8
Codec ID/Info : UTF-8 Plain Text
Duration : 1 h 33 min
Bit rate : 56 b/s
Count of elements : 1376
Stream size : 38.8 KiB (0%)
Title : Full
Language : French
Default : No
Forced : No
Menu
00:00:00.000 : en:Chapter 01
00:07:40.460 : en:Chapter 02
00:15:15.748 : en:Chapter 03
00:25:04.086 : en:Chapter 04
00:34:40.203 : en:Chapter 05
00:44:58.779 : en:Chapter 06
00:53:22.533 : en:Chapter 07
01:01:22.095 : en:Chapter 08
01:10:20.383 : en:Chapter 09
01:19:34.353 : en:Chapter 10
01:27:18.066 : en:Chapter 11

Скриншоты






Display posts:    

Current time is: 05-Aug 17:00

All times are UTC ± 0


You cannot post new topics in this forum
You cannot reply to topics in this forum
You cannot edit your posts in this forum
You cannot delete your posts in this forum
You cannot vote in polls in this forum
You cannot attach files in this forum
You cannot download files in this forum

!ATTENTION!
The site does not give electronic versions of products, and is engaged only in a collecting and cataloguing of the references sent and published at a forum by our readers. If you are the legal owner of any submitted material and do not wish that the reference to it was in our catalogue, contact us and we shall immediately remove her. Files for an exchange on tracker are given by users of a site, and the administration does not bear the responsibility for their maintenance. The request to not fill in the files protected by copyrights, and also files of the illegal maintenance!