Ивановский Торрент трекер
Яндекс.Погода
 

[Цитировать]
HUNTER

Скуби-Ду! Маска синего сокола / Scooby-Doo! Mask of the Blue Falcon
Страна: США
Жанр: мультфильм
Год выпуска: 2012
Продолжительность: 01:15:47
Перевод: Профессиональный (дублированный) [Лицензия]
Субтитры: русские, английские, польские, арабские, румынские, турецкие
Оригинальная аудиодорожка: английский
Режиссер: Майкл Гогуэн / Michael Goguen
В ролях: Фрэнк Уэлкер, Мэттью Лиллард, серый Делайл и Минди Кон
Описание: Супер-мега-классный Комик-Кон в солнечной Калифорнии открывает для вас новые оригинальные приключения Скуби-Ду! Геркулоиды, Франкенштейн-младший и Космический Призрак, вот лишь несколько знаменитых героев комиксов, появляющихся в зтом оригинальом сборнике Плюс еще - миллионнодолларовая премьера! В гловной роли любимые супергерои Шегги и Скуби-Ду - Синий Сокол и Динамит! Когда ужасный злодей мистер Хайд выпускает летучих мышей-монстров, воющих гончих и зловещую слизь на праздник, наступает время для Корпорации Тайны - разгадывать загадки и расставлять ловушки на монстров. Но наевшаяся пиццы, супер-заряженная команда Шегги и Скуби-Ду должны раскрыть в себе внутренних супергероев, чтобы остановить эту удушающую, омерзительную зеленую слизь!
Бонусы: Комические книги, Купе Скуби,
Меню: статичное, озвученное
Качество видео: DVD5
Формат видео: DVD Video
Тип релиза: DVD5 (Сжатый)
Контейнер: DVD-Video
Видео: PAL 16:9 (720x576) 5 138 Kbps
Аудио: English (Dolby AC3, 6 ch) 384 Kbps
Аудио 2: Polish (Dolby AC3, 6 ch) 224 Kbps
Аудио 3: Russian (Dolby AC3, 2 ch) 192 Kbps
Аудио 4: Romanian (Dolby AC3, 2 ch) 192 Kbps
Аудио 5: Turkish (Dolby AC3, 2 ch) 192 Kbps
http://www.youtube.com/watch?v=0FOqyghAC3E

Доп. информация

Обработано в DVDRemake Pro.+Photoshop+Muxman
Видео не сжималось.
Удалёно: Отражения в омерзительных глазах, заставки и предупреждение.
Лишние кнопки затерты и закрыты.

MediaInfo

General
Complete name : D:\_Video\Skubi-Du.Maska.sinego.sokola.2012.DVD5\VIDEO_TS\VTS_01_1.VOB
Format : MPEG-PS
File size : 1 024 MiB
Duration : 21mn 32s
Overall bit rate : 6 646 Kbps
Video
ID : 224 (0xE0)
Format : MPEG Video
Format version : Version 2
Format profile : Main@Main
Format settings, BVOP : Yes
Format settings, Matrix : Custom
Format settings, GOP : M=2, N=12
Duration : 21mn 32s
Bit rate mode : Variable
Bit rate : 5 138 Kbps
Maximum bit rate : 7 500 Kbps
Width : 720 pixels
Height : 576 pixels
Display aspect ratio : 16:9
Frame rate : 25.000 fps
Standard : PAL
Color space : YUV
Chroma subsampling : 4:2:0
Bit depth : 8 bits
Scan type : Interlaced
Scan order : Top Field First
Compression mode : Lossy
Bits/(Pixel*Frame) : 0.496
Stream size : 792 MiB (77%)
Audio #1
ID : 189 (0xBD)-128 (0x80)
Format : AC-3
Format/Info : Audio Coding 3
Mode extension : CM (complete main)
Muxing mode : DVD-Video
Duration : 21mn 32s
Bit rate mode : Constant
Bit rate : 384 Kbps
Channel(s) : 6 channels
Channel positions : Front: L C R, Side: L R, LFE
Sampling rate : 48.0 KHz
Bit depth : 16 bits
Compression mode : Lossy
Stream size : 59.2 MiB (6%)
Audio #2
ID : 189 (0xBD)-129 (0x81)
Format : AC-3
Format/Info : Audio Coding 3
Mode extension : CM (complete main)
Muxing mode : DVD-Video
Duration : 21mn 32s
Bit rate mode : Constant
Bit rate : 192 Kbps
Channel(s) : 2 channels
Channel positions : Front: L R
Sampling rate : 48.0 KHz
Bit depth : 16 bits
Compression mode : Lossy
Stream size : 29.6 MiB (3%)
Audio #3
ID : 189 (0xBD)-130 (0x82)
Format : AC-3
Format/Info : Audio Coding 3
Mode extension : CM (complete main)
Muxing mode : DVD-Video
Duration : 21mn 32s
Bit rate mode : Constant
Bit rate : 224 Kbps
Channel(s) : 6 channels
Channel positions : Front: L C R, Side: L R, LFE
Sampling rate : 48.0 KHz
Bit depth : 16 bits
Compression mode : Lossy
Stream size : 34.5 MiB (3%)
Audio #4
ID : 189 (0xBD)-131 (0x83)
Format : AC-3
Format/Info : Audio Coding 3
Mode extension : CM (complete main)
Muxing mode : DVD-Video
Duration : 21mn 32s
Bit rate mode : Constant
Bit rate : 192 Kbps
Channel(s) : 2 channels
Channel positions : Front: L R
Sampling rate : 48.0 KHz
Bit depth : 16 bits
Compression mode : Lossy
Stream size : 29.6 MiB (3%)
Audio #5
ID : 189 (0xBD)-132 (0x84)
Format : AC-3
Format/Info : Audio Coding 3
Format profile : Dolby Digital
Mode extension : CM (complete main)
Muxing mode : DVD-Video
Duration : 21mn 32s
Bit rate mode : Constant
Bit rate : 192 Kbps
Channel(s) : 2 channels
Channel positions : Front: L R
Sampling rate : 48.0 KHz
Bit depth : 16 bits
Compression mode : Lossy
Stream size : 29.6 MiB (3%)
Audio #6
ID : 189 (0xBD)-133 (0x85)
Format : AC-3
Format/Info : Audio Coding 3
Mode extension : CM (complete main)
Muxing mode : DVD-Video
Duration : 21mn 32s
Bit rate mode : Constant
Bit rate : 192 Kbps
Channel(s) : 2 channels
Channel positions : Front: L R
Sampling rate : 48.0 KHz
Bit depth : 16 bits
Compression mode : Lossy
Stream size : 29.6 MiB (3%)
Text #1
ID : 189 (0xBD)-32 (0x20)
Format : RLE
Format/Info : Run-length encoding
Muxing mode : DVD-Video
Text #2
ID : 189 (0xBD)-33 (0x21)
Format : RLE
Format/Info : Run-length encoding
Muxing mode : DVD-Video
Text #3
ID : 189 (0xBD)-34 (0x22)
Format : RLE
Format/Info : Run-length encoding
Muxing mode : DVD-Video
Text #4
ID : 189 (0xBD)-35 (0x23)
Format : RLE
Format/Info : Run-length encoding
Muxing mode : DVD-Video
Text #5
ID : 189 (0xBD)-36 (0x24)
Format : RLE
Format/Info : Run-length encoding
Muxing mode : DVD-Video
Text #6
ID : 189 (0xBD)-37 (0x25)
Format : RLE
Format/Info : Run-length encoding
Muxing mode : DVD-Video
Text #7
ID : 189 (0xBD)-38 (0x26)
Format : RLE
Format/Info : Run-length encoding
Muxing mode : DVD-Video
Menu

DVDInfo

Title: Bob
Size: 3.99 Gb ( 4 187 282 KBytes ) - DVD-5
Enabled regions: 1, 2, 3, 4, 5, 6, 7, 8
VTS_01 :
Play Length: 01:13:19
Video: PAL 16:9 (720x576) VBR, Auto Pan&Scan
Audio:
English (Dolby AC3, 6 ch)
Magyar (Dolby AC3, 2 ch)
Polish (Dolby AC3, 6 ch)
Romanian (Dolby AC3, 2 ch)
Russian (Dolby AC3, 2 ch)
Turkish (Dolby AC3, 2 ch)
Subtitles:
English
Arabic
Magyar
Polish
Romanian
Russian
Turkish
VTS_02 :
Play Length:
Video: PAL 16:9 (720x576) VBR, Auto Pan&Scan
Audio:
Not specified (Dolby AC3, 6 ch)
Subtitles:
Not specified
VTS_03 :
Play Length: 00:07:46+00:11:11+00:00:02
Video: PAL 4:3 (720x576) VBR
Audio:
Not specified (Dolby AC3, 6 ch)
Not specified (Dolby AC3, 6 ch)
Not specified (Dolby AC3, 6 ch)
Not specified (Dolby AC3, 6 ch)
Not specified (Dolby AC3, 6 ch)
Not specified (Dolby AC3, 6 ch)
English (Dolby AC3, 2 ch)
Subtitles:
English
Arabic
Magyar
Polish
Romanian
Russian
Turkish

Cкриншот финального проекта

Скриншоты меню

Скриншоты доп. материалов

Скриншоты



Раздача от группы:


Показать сообщения:    

Текущее время: 21-Сен 13:30

Часовой пояс: UTC ± 0


Вы не можете начинать темы
Вы не можете отвечать на сообщения
Вы не можете редактировать свои сообщения
Вы не можете удалять свои сообщения
Вы не можете голосовать в опросах
Вы не можете прикреплять файлы к сообщениям
Вы не можете скачивать файлы

!ВНИМАНИЕ!
Сайт не предоставляет электронные версии произведений, а занимается лишь коллекционированием и каталогизацией ссылок, присылаемых и публикуемых на форуме нашими читателями. Если вы являетесь правообладателем какого-либо представленного материала и не желаете, чтобы ссылка на него находилась в нашем каталоге, свяжитесь с нами, и мы незамедлительно удалим ее. Файлы для обмена на трекере предоставлены пользователями сайта, и администрация не несет ответственности за их содержание. Просьба не заливать файлы, защищенные авторскими правами, а также файлы нелегального содержания!