Ивановский Торрент трекер
Яндекс.Погода
 

[Цитировать]
HUNTER

Скуби-Ду и проклятье тринадцатого призрака / Scooby-Doo! and the Curse of the 13th Ghost
Страна: США
Жанр: Мультипликация
Продолжительность: 01:22:09
Год выпуска: 2019
Перевод: Любительский (многоголосый закадровый) ["Синема УС"]
Русские субтитры: нет-Режиссёр: Сесилия Аранович / Cecilia Aranovich
Роли озвучивали: Мэттью Лиллард, Грей ДеЛайл, Кейт Микуччи, Фрэнк Уэлкер, Морис ЛаМарш, Сьюзэн Блу-Описание: Сюжет этого нового мультфильма из знаменитой серии Скуби-Ду рассказывает об уже хорошо знакомых вам героях, которым предстоит пережить очередное увлекательное, полное опасностей приключение. На этот раз Скуби-Ду и его команда должны будут поймать последнего из тринадцати призраков. Герои мультфильма уже давно гоняются за всевозможными порождениями зла, и теперь у них есть отличный шанс завершить эту титаническую работу. Так или иначе, Скуби-Ду предстоит лицом к лицу встретиться с настоящим ужасом и, конечно же, избавить простых законопослушных граждан от присутствия ужасного призрака, способного уничтожать всё, что находится вокруг него…-Релиз от -
- За работу со звуком Огромное спасибо Нордер-Качество: WEB-DL 1080p
Формат: MKV
Видео: AVC, 1912x1072 (16:9), 23.976 fps, 5 062 kb/s (0.103 bit/pixel)
Аудио 1: AC-3, 48.0 kHz, 2 ch, 192 kb/s, CBR (Russian)
Аудио 2: AC-3, 48.0 kHz, 6 ch, 384 kb/s, CBR (English)
Субтитры: English
Семпл: Забираем тут

Подробные технические данные

Общее
Уникальный идентификатор : 189403991458197268030106119813066396289 (0x8E7DE1C2778C099FB7F534CAC3AC1281)
Полное имя : Scooby Doo and the Curse of the 13th Ghost 2019 1080p WEB-DL.mkv
Формат : Matroska
Версия формата : Version 4 / Version 2
Размер файла : 3,24 Гбайт
Продолжительность : 1 ч. 22 м.
Общий поток : 5639 Кбит/сек
Дата кодирования : UTC 2019-02-11 08:02:45
Программа кодирования : mkvmerge v15.0.0 ('Duel with the Devil') 64-bit
Библиотека кодирования : libebml v1.3.5 + libmatroska v1.4.5
Видео
Идентификатор : 1
Формат : AVC
Формат/Информация : Advanced Video Codec
Профиль формата : High@L4
Параметр CABAC формата : Да
Параметр ReFrames формата : 4 кадра
Идентификатор кодека : V_MPEG4/ISO/AVC
Продолжительность : 1 ч. 22 м.
Битрейт : 5062 Кбит/сек
Ширина : 1912 пикселей
Высота : 1072 пикселя
Соотношение сторон : 16:9
Режим частоты кадров : Постоянный
Частота кадров : 23,976 (23976/1000) кадра/сек
Цветовое пространство : YUV
Субдискретизация насыщенности : 4:2:0
Битовая глубина : 8 бит
Тип развёртки : Прогрессивная
Бит/(Пиксели*Кадры) : 0.103
Размер потока : 2,90 Гбайт (90%)
Язык : English
Default : Да
Forced : Нет
Цветовой диапазон : Limited
Основные цвета : BT.709
Характеристики трансфера : BT.709
Коэффициенты матрицы : BT.709
Аудио #1
Идентификатор : 2
Формат : AC-3
Формат/Информация : Audio Coding 3
Расширение режима : CM (complete main)
Параметр Endianness формата : Big
Идентификатор кодека : A_AC3
Продолжительность : 1 ч. 21 м.
Вид битрейта : Постоянный
Битрейт : 192 Кбит/сек
Каналы : 2 канала
Расположение каналов : Front: L R
Частота : 48,0 КГц
Частота кадров : 31,250 кадров/сек (1536 spf)
Метод сжатия : С потерями
Размер потока : 113 Мбайт (3%)
Язык : Russian
Default : Да
Forced : Нет
Аудио #2
Идентификатор : 3
Формат : AC-3
Формат/Информация : Audio Coding 3
Расширение режима : CM (complete main)
Параметр Endianness формата : Big
Идентификатор кодека : A_AC3
Продолжительность : 1 ч. 21 м.
Вид битрейта : Постоянный
Битрейт : 384 Кбит/сек
Каналы : 6 каналов
Расположение каналов : Front: L C R, Side: L R, LFE
Частота : 48,0 КГц
Частота кадров : 31,250 кадров/сек (1536 spf)
Метод сжатия : С потерями
Размер потока : 225 Мбайт (7%)
Язык : English
Default : Нет
Forced : Нет
Текст
Идентификатор : 4
Формат : UTF-8
Идентификатор кодека : S_TEXT/UTF8
Идентификатор кодека/Информация : UTF-8 Plain Text
Продолжительность : 1 ч. 19 м.
Битрейт : 80 бит/сек
Count of elements : 1580
Размер потока : 46,7 Кбайт (0%)
Язык : English
Default : Нет
Forced : Нет
Меню
00:00:00.000 : en:1
00:10:05.000 : en:2
00:19:54.000 : en:3
00:30:45.000 : en:4
00:40:49.000 : en:5
00:49:38.000 : en:6
00:59:47.000 : en:7
01:07:28.000 : en:8
01:19:19.000 : en:9

Скриншоты




Показать сообщения:    

Текущее время: 18-Фев 14:36

Часовой пояс: UTC ± 0


Вы не можете начинать темы
Вы не можете отвечать на сообщения
Вы не можете редактировать свои сообщения
Вы не можете удалять свои сообщения
Вы не можете голосовать в опросах
Вы не можете прикреплять файлы к сообщениям
Вы не можете скачивать файлы

!ВНИМАНИЕ!
Сайт не предоставляет электронные версии произведений, а занимается лишь коллекционированием и каталогизацией ссылок, присылаемых и публикуемых на форуме нашими читателями. Если вы являетесь правообладателем какого-либо представленного материала и не желаете, чтобы ссылка на него находилась в нашем каталоге, свяжитесь с нами, и мы незамедлительно удалим ее. Файлы для обмена на трекере предоставлены пользователями сайта, и администрация не несет ответственности за их содержание. Просьба не заливать файлы, защищенные авторскими правами, а также файлы нелегального содержания!