Ивановский Торрент трекер
Яндекс.Погода
Статистика раздачи
Нет
 
     
 
 

[Цитировать]
HUNTER

Скуби-Ду и Бэтмен: Храбрый и смелый / Scooby-Doo & Batman: the Brave and the Bold
Страна: США
Жанр: Мультипликация
Продолжительность: 01:15:09
Год выпуска: 2018
Перевод: Любительский (Многоголосый закадровый) - Колобок
Русские субтитры: нет-Режиссёр: Джейк Касторена / Jake Castorena
Роли озвучивали: Кейт Микуччи, Тара Стронг, Мэттью Лиллард, Николас Гест, Дидрих Бадер, Грей ДеЛайл, Джеффри Комбс, Том Кенни, Джон Майкл Хиггинс, Джон Ди Маджио-Описание: Бэтмен объединяется с бандой Скуби Ду, когда злодеи из обоих миров, задумали чтобы нанести ущерб городу.-Релиз от -
- За работу со звуком Огромное спасибо Нордер-Качество: WEB-DL 1080p
Формат: MKV
Видео: AVC, 1912x1072 (16:9), 23.976 fps, 4 912 Kbps (0.100 bit/pixel)
Аудио 1: AC-3, 48.0 KHz, 2 ch, 192 Kbps, CBR (Russian)
Аудио 2: AC-3, 48.0 KHz, 6 ch, 384 Kbps, CBR (English)
Субтитры: English
Семпл: Забираем тут

Подробные технические данные

Общее
Уникальный идентификатор : 214595892281377364969003775287058287326 (0xA171AA5D780145B5ABD725996A0CCADE)
Полное имя : Scooby-Doo and Batman The Brave and the Bold 2018 1080p WEB-DL.mkv
Формат : Matroska
Версия формата : Version 4 / Version 2
Размер файла : 2,94 Гбайт
Продолжительность : 1 ч. 15 м.
Общий поток : 5600 Кбит/сек
Дата кодирования : UTC 2018-01-18 06:08:40
Программа кодирования : mkvmerge v15.0.0 ('Duel with the Devil') 64-bit
Библиотека кодирования : libebml v1.3.5 + libmatroska v1.4.5
Видео
Идентификатор : 1
Формат : AVC
Формат/Информация : Advanced Video Codec
Профиль формата : High@L4
Параметр CABAC формата : Да
Параметр ReFrames формата : 4 кадра
Идентификатор кодека : V_MPEG4/ISO/AVC
Продолжительность : 1 ч. 15 м.
Битрейт : 5022 Кбит/сек
Ширина : 1912 пикселей
Высота : 1072 пикселя
Соотношение сторон : 16:9
Режим частоты кадров : Постоянный
Частота кадров : 23,976 кадра/сек
Цветовое пространство : YUV
Субдискретизация насыщенности : 4:2:0
Битовая глубина : 8 бит
Тип развёртки : Прогрессивная
Бит/(Пиксели*Кадры) : 0.102
Размер потока : 2,64 Гбайт (90%)
Язык : English
Default : Да
Forced : Нет
Цветовой диапазон : Limited
Основные цвета : BT.709
Характеристики трансфера : BT.709
Коэффициенты матрицы : BT.709
Аудио #1
Идентификатор : 2
Формат : AC-3
Формат/Информация : Audio Coding 3
Расширение режима : CM (complete main)
Параметр Endianness формата : Big
Идентификатор кодека : A_AC3
Продолжительность : 1 ч. 15 м.
Вид битрейта : Постоянный
Битрейт : 192 Кбит/сек
Каналы : 2 канала
Расположение каналов : Front: L R
Частота : 48,0 КГц
Частота кадров : 31,250 кадров/сек (1536 spf)
Метод сжатия : С потерями
Размер потока : 103 Мбайт (3%)
Язык : Russian
Default : Да
Forced : Нет
Аудио #2
Идентификатор : 3
Формат : AC-3
Формат/Информация : Audio Coding 3
Расширение режима : CM (complete main)
Параметр Endianness формата : Big
Идентификатор кодека : A_AC3
Продолжительность : 1 ч. 15 м.
Вид битрейта : Постоянный
Битрейт : 384 Кбит/сек
Каналы : 6 каналов
Расположение каналов : Front: L C R, Side: L R, LFE
Частота : 48,0 КГц
Частота кадров : 31,250 кадров/сек (1536 spf)
Метод сжатия : С потерями
Размер потока : 206 Мбайт (7%)
Язык : English
Default : Нет
Forced : Нет
Текст
Идентификатор : 4
Формат : UTF-8
Идентификатор кодека : S_TEXT/UTF8
Идентификатор кодека/Информация : UTF-8 Plain Text
Продолжительность : 1 ч. 11 м.
Битрейт : 63 бит/сек
Count of elements : 1038
Размер потока : 33,2 Кбайт (0%)
Язык : English
Default : Нет
Forced : Нет
Меню
00:00:00.000 : en:1
00:10:33.000 : en:2
00:22:40.000 : en:3
00:31:15.000 : en:4
00:41:52.000 : en:5
00:53:45.000 : en:6
01:03:07.000 : en:7
01:12:08.000 : en:8

Скриншоты




Показать сообщения:    

Текущее время: 24-Мар 07:08

Часовой пояс: UTC ± 0


Вы не можете начинать темы
Вы не можете отвечать на сообщения
Вы не можете редактировать свои сообщения
Вы не можете удалять свои сообщения
Вы не можете голосовать в опросах
Вы не можете прикреплять файлы к сообщениям
Вы не можете скачивать файлы

!ВНИМАНИЕ!
Сайт не предоставляет электронные версии произведений, а занимается лишь коллекционированием и каталогизацией ссылок, присылаемых и публикуемых на форуме нашими читателями. Если вы являетесь правообладателем какого-либо представленного материала и не желаете, чтобы ссылка на него находилась в нашем каталоге, свяжитесь с нами, и мы незамедлительно удалим ее. Файлы для обмена на трекере предоставлены пользователями сайта, и администрация не несет ответственности за их содержание. Просьба не заливать файлы, защищенные авторскими правами, а также файлы нелегального содержания!