Ивановский Торрент трекер
Яндекс.Погода
 

[Цитировать]
HUNTER

Мозаичный мир / Short Peace Movie
[Otomo Katsuhiro's Omnibus Project]

Страна: Япония
Год выпуска: 2013 г.
Жанр: мистика, историческое, драма, приключения, киберпанк
Тип: Movie
Продолжительность: 1 час 08 минут (4 фильма)
Режиссёры: Morita Shuhei, Otomo Katsuhiro, Andou Hiroaki, Katoki Hajime
Студия: Sunrise
(а также Bandai Visual, Dentsu Inc., Lantis, Namco Bandai Games, Shochiku Co. Ltd)
Описание: Выпущенная в 2013 году антология четырёх короткометражных анимационных фильмов. Второй полнометражный сборник Кацухиро Отомо (предыдущим был вышедший в 1995 году "Memories").
Состоит из:
1. Tsukumo - режиссёр Морита Сюхэй
2. Hi no Youjin - режиссёр Отомо Кацухиро
3. Gambo - режиссёр Андо Хироаки
4. Buki yo Saraba - режиссёр Катоки Хадзимэ
Качество: BDRip
Тип релиза: Без хардсаба
Формат видео: MKV
Совместимость с бытовыми плеерами: Нет
Русские субтитры: Внешним файлом. Формат: ASS/SRT
Переводчик: qx aka Night
Редактор: kuzmich
АВТОРСКИЙ ПЕРЕВОД.
*Скачать шрифты.
Технические данные:
Автор рипа: AdzsC@WiKi
Видео: H264/AVC, 1280x720, 5500 Kbps, 23.976 fps, 8 bit.
Аудио: DTS 5.1 @ 1509 Kbps. Язык: японский.
Вес файла: 3.36 GiB
Отличия от других раздач:
http://rutracker.org/forum/viewtopic.php?t=4707071 - другой перевод

MediaInfo

General
Unique ID : 197124157886768746233992896390771532166 (0x944CBB5A1A911CE7A1942A9F06F86186)
Complete name : Short.Peace.2013.720p.BluRay.x264.DTS-WiKi.mkv
Format : Matroska
Format version : Version 2
File size : 3.36 GiB
Duration : 1h 8mn
Overall bit rate : 7 009 Kbps
Encoded date : UTC 2014-02-04 05:40:25
Writing application : mkvmerge v5.8.0 ('No Sleep / Pillow') built on Sep 2 2012 15:37:04
Writing library : libebml v1.2.3 + libmatroska v1.3.0
Video
ID : 1
Format : AVC
Format/Info : Advanced Video Codec
Format profile : High@L4.1
Format settings, CABAC : Yes
Format settings, ReFrames : 9 frames
Codec ID : V_MPEG4/ISO/AVC
Duration : 1h 8mn
Bit rate : 5 500 Kbps
Width : 1 280 pixels
Height : 720 pixels
Display aspect ratio : 16:9
Frame rate mode : Constant
Frame rate : 23.976 fps
Color space : YUV
Chroma subsampling : 4:2:0
Bit depth : 8 bits
Scan type : Progressive
Bits/(Pixel*Frame) : 0.249
Stream size : 2.57 GiB (76%)
Writing library : x264 core 136 r2348+704+51 d1baef6 tMod [8-bit@all X86_64]
Encoding settings : cabac=1 / ref=9 / deblock=1:-2:-2 / analyse=0x3:0x133 / me=umh / subme=11 / psy=1 / fade_compensate=0.00 / psy_rd=0.60:0.05 / mixed_ref=1 / me_range=32 / chroma_me=1 / trellis=2 / 8x8dct=1 / cqm=0 / deadzone=21,11 / fast_pskip=0 / chroma_qp_offset=-3 / threads=12 / lookahead_threads=3 / sliced_threads=0 / nr=0 / decimate=0 / interlaced=0 / bluray_compat=0 / constrained_intra=0 / fgo=0 / bframes=12 / b_pyramid=2 / b_adapt=2 / b_bias=0 / direct=3 / weightb=1 / open_gop=0 / weightp=2 / keyint=250 / keyint_min=23 / scenecut=40 / intra_refresh=0 / rc=2pass / mbtree=0 / bitrate=5500 / ratetol=1.0 / qcomp=0.80 / qpmin=0:0:0 / qpmax=69:69:69 / qpstep=4 / cplxblur=20.0 / qblur=0.5 / ip_ratio=1.40 / pb_ratio=1.30 / aq=3:0.85 / aq-sensitivity=10.00 / aq-factor=1.00:1.00:1.00 / aq2=0 / aq3=0
Default : Yes
Forced : No
Matrix coefficients : BT.709
Audio
ID : 2
Format : DTS
Format/Info : Digital Theater Systems
Mode : 16
Format settings, Endianness : Big
Codec ID : A_DTS
Duration : 1h 8mn
Bit rate mode : Constant
Bit rate : 1 509 Kbps
Channel(s) : 6 channels
Channel positions : Front: L C R, Side: L R, LFE
Sampling rate : 48.0 KHz
Bit depth : 24 bits
Compression mode : Lossy
Stream size : 741 MiB (22%)
Language : Japanese
Default : Yes
Forced : No
Menu
00:00:00.000 : en:オープニング
00:03:39.594 : en:九十九
00:17:10.029 : en:火要鎮
00:29:13.085 : en:GAMBO
00:40:42.774 : en:武器よさらば

Скриншоты





Показать сообщения:    

Текущее время: 25-Сен 16:09

Часовой пояс: UTC - 1


Вы не можете начинать темы
Вы не можете отвечать на сообщения
Вы не можете редактировать свои сообщения
Вы не можете удалять свои сообщения
Вы не можете голосовать в опросах
Вы не можете прикреплять файлы к сообщениям
Вы не можете скачивать файлы

!ВНИМАНИЕ!
Сайт не предоставляет электронные версии произведений, а занимается лишь коллекционированием и каталогизацией ссылок, присылаемых и публикуемых на форуме нашими читателями. Если вы являетесь правообладателем какого-либо представленного материала и не желаете, чтобы ссылка на него находилась в нашем каталоге, свяжитесь с нами, и мы незамедлительно удалим ее. Файлы для обмена на трекере предоставлены пользователями сайта, и администрация не несет ответственности за их содержание. Просьба не заливать файлы, защищенные авторскими правами, а также файлы нелегального содержания!