Ивановский Торрент трекер
Яндекс.Погода
DL-List and Torrent activity
Size:  3.35 GB   |    Registered:  4 years 3 months   |    Completed:  0 times
DL-List: None

Seeder not seen: Never

 
     
 
 
 

[Quote]
HUNTER

Сердце Рождества / The Christmas Heart Страна: США
Жанр: драма
Год выпуска: 2012
Продолжительность: 01:23:08
Перевод: Профессиональный (многоголосый закадровый)
Cубтитры: нет
Режиссер: Гари Йэтс / Gary Yates
В ролях: Тери Поло, Пол Эссимбр, Ти Вуд, Круз Браун, Тесс Харпер, Джон Б. Лоу, Сьюзэн Келсо, Саманта Кендрик, Блейк Тейлор, Кларисса Ричардс
Описание: Канун Рождества подросток отчаянно нуждается в пересадке сердца. Параллельно этому его знакомые и соседи проводят сорокалетнюю традицию украшать улицу фонарями. Когда родители парня, Энн и Майк, молятся за сына, соседи неожиданно понимают, что у их традиции может появится совсем другая цель…
Сэмпл: http://rusfolder.com/43275666

Тип релиза: HDTV 1080i
Контейнер: TS
Видео: AVC/H.264, 1920x1080 (16:9), 5296 Кбит/сек, 25.000 fps
Аудио: русский, MP2, 2ch, 48,0 КГц, 192 Кбит/сек

MediaInfo

Общее
Идентификатор : 1 (0x1)
Полное имя : F:\раздачи\Сердце Рождества.ts
Формат : MPEG-TS
Размер файла : 3,35 Гбайт
Продолжительность : 1 ч. 23 м.
Режим общего битрейта : Переменный
Общий поток : 5775 Кбит/сек
Максимальный общий битрейт : 35,5 Мбит/сек
Видео
Идентификатор : 4113 (0x1011)
Идентификатор меню : 1 (0x1)
Формат : AVC
Формат/Информация : Advanced Video Codec
Профиль формата : Main@L4.0
Параметр CABAC формата : Да
Параметр ReFrames формата : 3 кадра
Идентификатор кодека : 27
Продолжительность : 1 ч. 23 м.
Вид битрейта : Переменный
Битрейт : 5296 Кбит/сек
Максимальный битрейт : 40,0 Мбит/сек
Ширина : 1920 пикселей
Высота : 1080 пикселей
Соотношение сторон : 16:9
Частота кадров : 25,000 кадров/сек
Стандарт вещания : Component
Цветовое пространство : YUV
Субдискретизация насыщенности : 4:2:0
Битовая глубина : 8 бит
Тип развёртки : Чересстрочная
Порядок развёртки : Верхнее поле первое
Бит/(Пиксели*Кадры) : 0.102
Размер потока : 3,08 Гбайт (92%)
colour_range : Limited
Аудио
Идентификатор : 4352 (0x1100)
Идентификатор меню : 1 (0x1)
Формат : MPEG Audio
Версия формата : Version 1
Профиль формата : Layer 2
Идентификатор кодека : 4
Продолжительность : 1 ч. 23 м.
Вид битрейта : Постоянный
Битрейт : 192 Кбит/сек
Каналы : 2 канала
Частота : 48,0 КГц
Метод сжатия : С потерями
Размер потока : 114 Мбайт (3%)
Язык : Russian

Скриншоты с названием фильма

Скриншоты

[iv-torrents.ru].t42308.torrent
Torrent: Registered [ 2015-03-22 20:08 ] · 94CAA3228813E7F45DFCA24E278F8FF9827FA0ED

Download .torrent

Download

17 KB

Status: checked
Completed: 0 times
Size: 3.35 GB
terms.php


Quick Reply

Name:

               
       
     
Heads necessary to send messages to enable JavaScript
Display posts:    

Current time is: 21-Jul 14:59

All times are UTC ± 0


You can post new topics in this forum
You can reply to topics in this forum
You cannot edit your posts in this forum
You cannot delete your posts in this forum
You cannot vote in polls in this forum
You cannot attach files in this forum
You can download files in this forum

!ATTENTION!
The site does not give electronic versions of products, and is engaged only in a collecting and cataloguing of the references sent and published at a forum by our readers. If you are the legal owner of any submitted material and do not wish that the reference to it was in our catalogue, contact us and we shall immediately remove her. Files for an exchange on tracker are given by users of a site, and the administration does not bear the responsibility for their maintenance. The request to not fill in the files protected by copyrights, and also files of the illegal maintenance!