Важное объявление!
У Нас Все раздачи мультитрекерные, при нуле пиров в релизах, можете смело вставать на закачку!
 
Автор Сообщение

palych74

Стаж:
4 года 4 месяца
Сообщений:
80

Репутация: 21

[+] [-]
Вне форума [Профиль] [ЛС]

Sepultura-Live Wacken 2012
Жанр: Thrash Metal
Продолжительность: 00:55:26
Год выпуска: 2012
Описание:
01. Refuse/Resist
02. Sepulnation
03. Kairos
Интервью
04. Mask
05. We've Lost You!
06. Structure Violences
Интервью
07. Requiem
08. Firestarter (Prodigy Cover)
Интервью
09. Territory
10. Ratamahatta
11. Roots Bloody Roots
Доп. информация: Все благодарности abbath2008
Качество: HDTV 720p
Контейнер: TS
Видео кодек: H.264
Аудио кодек: AC3
Видео: AVC, 1280х720, 16:9, 13,2 Мбит/сек, 50,000 кадров/сек
Аудио: Dolby AC3 48000Hz stereo

Отчёт MediaInfo / BDInfo

GeneralID : 1Complete name : D:\Sepultura_Live Wacken_2012.tsFormat : MPEG-TSFile size : 5.57 GiBDuration : 55mn 26sOverall bit rate : 14.4 MbpsMaximum Overall bit rate : 35.5 Mbps
VideoID : 4113 (0x1011)Menu ID : 1 (0x1)Format : AVCFormat/Info : Advanced Video CodecFormat profile : High@L4.0Format settings, CABAC : YesFormat settings, ReFrames : 6 framesCodec ID : 27Duration : 55mn 26sBit rate mode : VariableBit rate : 13.2 MbpsMaximum bit rate : 40.0 MbpsWidth : 1 280 pixelsHeight : 720 pixelsDisplay aspect ratio : 16:9Frame rate : 50.000 fpsColor space : YUVChroma subsampling : 4:2:0Bit depth : 8 bitsScan type : ProgressiveBits/(Pixel*Frame) : 0.287Stream size : 5.12 GiB (92%)Color primaries : BT.709-5, BT.1361, IEC 61966-2-4, SMPTE RP177Transfer characteristics : BT.709-5, BT.1361Matrix coefficients : BT.709-5, BT.1361, IEC 61966-2-4 709, SMPTE RP177
AudioID : 4352 (0x1100)Menu ID : 1 (0x1)Format : AC-3Format/Info : Audio Coding 3Mode extension : CM (complete main)Codec ID : 129Duration : 55mn 26sBit rate mode : ConstantBit rate : 448 KbpsChannel(s) : 2 channelsChannel positions : Front: L RSampling rate : 48.0 KHzBit depth : 16 bitsStream size : 178 MiB (3%)Language : German

Скриншоты

Показать сообщения:    

Текущее время: Сегодня 13:03

Часовой пояс: GMT



Вы не можете начинать темы
Вы не можете отвечать на сообщения
Вы не можете редактировать свои сообщения
Вы не можете удалять свои сообщения
Вы не можете голосовать в опросах
Вы не можете прикреплять файлы к сообщениям
Вы не можете скачивать файлы