Ивановский Торрент трекер
Яндекс.Погода
DL-List and Torrent activity
Size:  9.35 GB   |    Registered:  5 years 3 months   |    Completed:  1 time
DL-List: None

Seeder not seen: Never

 
     
 
 
 

[Quote]
HUNTER

Семейные грехи / Family Sins
Страна: США, Канада
Жанр: драма
Год выпуска: 2004
Продолжительность: 01:26:05
Перевод: Профессиональный (многоголосый закадровый) 1 канал
Cубтитры: нет
Оригинальная аудиодорожка: нет
Режиссер: Грэм Клиффорд / Graeme Clifford
В ролях: Кёрсти Элли, Дианна Миллиган, Кэтлин Уилхойт, Уилл Пэттон, Кевин МакНалти, Дэвид Ричмонд-Пек, Эрин Карплак, Стив Браун, Тай Рунян, Валери Планше
Описание: Фильм основан на реальных событиях.
Для всех окружающих Бренда Гек – заботливая мать дружного семейства, одна поднимающая детей. На самом же деле Бренда возглавляет бандитскую группировку, которая обманным путем зарабатывает на жизнь, манипулируя другими людьми. Поджоги, похищения, грабежи – банда не гнушалось ничем, пока их не вывели на чистую воду...
Сэмпл: http://multi-up.com/953322
Тип релиза: HDTV 1080i
Контейнер: TS
Видео: AVC, 1920x1080 (16/9), 25.000 fps, 14.3 Mbps (0.275 bit/pixel)
Аудио: MP2, 48.0 KHz, 2 ch, 192 Kbps, CBR (Russian)

MediaInfo

Общее
Идентификатор : 3 (0x3)
Полное имя : K:\МОИ РАЗДАЧИ\Семейные грехи.TS
Формат : MPEG-TS
Размер файла : 9,35 Гбайт
Продолжительность : 1 ч. 26 м.
Режим общего битрейта : Переменный
Общий поток : 15,5 Мбит/сек
Видео
Идентификатор : 2141 (0x85D)
Идентификатор меню : 21004 (0x520C)
Формат : AVC
Формат/Информация : Advanced Video Codec
Профиль формата : Main@L4.0
Параметр CABAC формата : Да
Параметр ReFrames формата : 3 кадра
Идентификатор кодека : 27
Продолжительность : 1 ч. 26 м.
Битрейт : 14,6 Мбит/сек
Ширина : 1920 пикселей
Высота : 1080 пикселей
Соотношение сторон : 16:9
Частота кадров : 25,000 кадров/сек
Стандарт вещания : Component
Цветовое пространство : YUV
Субдискретизация насыщенности : 4:2:0
Битовая глубина : 8 бит
Тип развёртки : Чересстрочная
Порядок развёртки : Верхнее поле первое
Бит/(Пиксели*Кадры) : 0.281
Размер потока : 8,77 Гбайт (94%)
Основные цвета : BT.709
Характеристики трансфера : BT.709
Коэффициенты матрицы : BT.709
Аудио
Идентификатор : 2142 (0x85E)
Идентификатор меню : 21004 (0x520C)
Формат : MPEG Audio
Версия формата : Version 1
Профиль формата : Layer 2
Идентификатор кодека : 4
Продолжительность : 1 ч. 26 м.
Вид битрейта : Постоянный
Битрейт : 192 Кбит/сек
Каналы : 2 канала
Частота : 48,0 КГц
Метод сжатия : С потерями
Задержка видео : -17 мс.
Размер потока : 118 Мбайт (1%)
Язык : Russian

Скриншоты


[iv-torrents.ru].t23768.torrent
Torrent: Registered [ 2014-02-22 14:20 ] · B3ABE1ABF1C9297A55D92721C2906B16F381E88A

Download .torrent

Download

47 KB

Status: checked
Completed: 1 times
Size: 9.35 GB
terms.php


Quick Reply

Name:

               
       
     
Heads necessary to send messages to enable JavaScript
Display posts:    

Current time is: 25-May 10:54

All times are UTC ± 0


You can post new topics in this forum
You can reply to topics in this forum
You cannot edit your posts in this forum
You cannot delete your posts in this forum
You cannot vote in polls in this forum
You cannot attach files in this forum
You can download files in this forum

!ATTENTION!
The site does not give electronic versions of products, and is engaged only in a collecting and cataloguing of the references sent and published at a forum by our readers. If you are the legal owner of any submitted material and do not wish that the reference to it was in our catalogue, contact us and we shall immediately remove her. Files for an exchange on tracker are given by users of a site, and the administration does not bear the responsibility for their maintenance. The request to not fill in the files protected by copyrights, and also files of the illegal maintenance!