Ивановский Торрент трекер
Яндекс.Погода
 

[Quote]
HUNTER

Семейка Аддамс / The Addams Family
«Думаете, ваша семейка странная?»
-
Страна: Канада, США
Production co.: Metro-Goldwyn-Mayer (MGM), Cinesite Animation, BRON Studios
Жанр: Мультфильм, ужасы, фэнтези, комедия, семейный
Продолжительность: 01:27:01
Год выпуска: 2019
Перевод: Профессиональный (дублированный) - (центральный канал - онлайн кинотеатр)
Cубтитры: Eng (Full, SDH)-Режиссёр: Грег Тирнан / Greg Tiernan, Конрад Вернон / Conrad Vernon-Роли озвучивали: Оскар Айзек, Шарлиз Терон, Хлоя Грейс Морец, Финн Вулфард, Ник Кролл, Снуп Догг, Бетт Мидлер, Эллисон Джэнни, Мартин Шорт, Кэтрин О`Хара-Описание:Папа любит долгие прогулки в ненастную погоду. Мама считает, что черный цвет самый яркий. У детей кладбище — любимая площадка для игр. Бабушка выпивает пару капель яда перед сном. Вы все еще думаете, что ваши родственники странные? Знакомьтесь — семейка Аддамс.-«Семейка А́ддамс» (англ. The Addams Family) — американский анимационный фильм, основанный на комиксах Чарльза Аддамса про Семейку Аддамс. Production company - Metro-Goldwyn-Mayer, Bron Creative.
-Релиз:


IMDb: 5.80 (11 845)
Sample-Качество: BDRip-AVC | The.Addams.Family.2019.1080p.BluRay.REMUX.AVC.DTS-HD.MA.7.1-EPSiLON
Формат: MKV
Видео: AVC 3382 kb/s 1104 x 596 (1.852) 23.976 fps
Аудио 1: AC-3 384 kb/s 6 channels, 48.0 kHz [Rus] (центральный канал - онлайн кинотеатр)
Аудио 2: AC-3 448 kb/s 6 channels, 48.0 kHz [Eng]
Субтитры: Eng

MI | Log

Log

x264 [info]: frame I:1127 Avg QP:13.01 size:122345
x264 [info]: frame P:34967 Avg QP:14.32 size: 33860
x264 [info]: frame B:89090 Avg QP:17.77 size: 9935
x264 [info]: consecutive B-frames: 4.2% 7.5% 6.4% 59.9% 7.4% 10.3% 1.3% 2.5% 0.5%
x264 [info]: mb I I16..4: 9.0% 58.2% 32.8%
x264 [info]: mb P I16..4: 1.0% 8.9% 2.7% P16..4: 25.2% 27.8% 14.7% 4.6% 0.8% skip:14.3%
x264 [info]: mb B I16..4: 0.1% 1.4% 0.4% B16..8: 27.3% 18.3% 3.8% direct: 4.5% skip:44.1% L0:40.1% L1:43.8% BI:16.1%
x264 [info]: 8x8 transform intra:69.1% inter:42.7%
x264 [info]: direct mvs spatial:99.9% temporal:0.1%
x264 [info]: coded y,uvDC,uvAC intra: 88.6% 81.4% 68.4% inter: 20.8% 13.9% 6.1%
x264 [info]: i16 v,h,dc,p: 11% 13% 20% 55%
x264 [info]: i8 v,h,dc,ddl,ddr,vr,hd,vl,hu: 14% 12% 11% 8% 10% 10% 10% 11% 13%
x264 [info]: i4 v,h,dc,ddl,ddr,vr,hd,vl,hu: 27% 10% 6% 7% 12% 11% 10% 8% 9%
x264 [info]: i8c dc,h,v,p: 36% 31% 19% 13%
x264 [info]: Weighted P-Frames: Y:4.7% UV:3.7%
x264 [info]: ref P L0: 52.4% 8.8% 13.8% 5.7% 4.8% 3.9% 3.2% 1.9% 1.7% 1.7% 1.7% 0.3% 0.0%
x264 [info]: ref B L0: 78.5% 9.0% 4.5% 2.2% 1.7% 1.4% 1.2% 0.7% 0.5% 0.3%
x264 [info]: ref B L1: 95.4% 4.6%
x264 [info]: kb/s:3381.61
x264 [total]: encoded 125184 frames, 12.46 fps, 3381.61 kb/s
Format : Matroska
Format version : Version 4
File size : 2.56 GiB
Duration : 1 h 27 min
Overall bit rate : 4 197 kb/s
Movie name : The Addams Family [rutracker.org]
Encoded date : UTC 2020-01-12 20:20:00
Writing application : mkvmerge v8.2.0 ('World of Adventure') 64bit
Writing library : libebml v1.3.1 + libmatroska v1.4.2
Video
ID : 1
Format : AVC
Format/Info : Advanced Video Codec
Format profile : [email protected]
Format settings : CABAC / 11 Ref Frames
Format settings, CABAC : Yes
Format settings, Reference frames : 11 frames
Codec ID : V_MPEG4/ISO/AVC
Duration : 1 h 27 min
Bit rate : 3 382 kb/s
Width : 1 104 pixels
Height : 596 pixels
Display aspect ratio : 1.85:1
Frame rate mode : Constant
Frame rate : 23.976 (24000/1001) FPS
Color space : YUV
Chroma subsampling : 4:2:0
Bit depth : 8 bits
Scan type : Progressive
Bits/(Pixel*Frame) : 0.214
Stream size : 2.06 GiB (80%)
Title : The Addams Family [rutracker.org]
Writing library : x264 core 159 r2991 1771b55
Encoding settings : cabac=1 / ref=11 / deblock=1:-3:-2 / analyse=0x3:0x133 / me=umh / subme=11 / psy=1 / psy_rd=1.00:0.05 / mixed_ref=1 / me_range=48 / chroma_me=1 / trellis=2 / 8x8dct=1 / cqm=0 / deadzone=21,11 / fast_pskip=0 / chroma_qp_offset=-3 / threads=12 / lookahead_threads=2 / sliced_threads=0 / nr=0 / decimate=1 / interlaced=0 / bluray_compat=0 / constrained_intra=0 / bframes=8 / b_pyramid=2 / b_adapt=2 / b_bias=0 / direct=3 / weightb=1 / open_gop=0 / weightp=2 / keyint=250 / keyint_min=23 / scenecut=40 / intra_refresh=0 / rc_lookahead=60 / rc=crf / mbtree=0 / crf=16.3 / qcomp=0.60 / qpmin=0 / qpmax=69 / qpstep=4 / vbv_maxrate=50000 / vbv_bufsize=62500 / crf_max=0.0 / nal_hrd=none / filler=0 / ip_ratio=1.40 / pb_ratio=1.30 / aq=3:0.90
Language : English
Default : Yes
Forced : No
Audio #1
ID : 2
Format : AC-3
Format/Info : Audio Coding 3
Commercial name : Dolby Digital
Codec ID : A_AC3
Duration : 1 h 27 min
Bit rate mode : Constant
Bit rate : 384 kb/s
Channel(s) : 6 channels
Channel layout : L R C LFE Ls Rs
Sampling rate : 48.0 kHz
Frame rate : 31.250 FPS (1536 SPF)
Bit depth : 16 bits
Compression mode : Lossy
Stream size : 240 MiB (9%)
Title : DUB (центральный канал (Онлайн кинотеатр))
Language : Russian
Service kind : Complete Main
Default : Yes
Forced : No
Audio #2
ID : 3
Format : AC-3
Format/Info : Audio Coding 3
Commercial name : Dolby Digital
Codec ID : A_AC3
Duration : 1 h 27 min
Bit rate mode : Constant
Bit rate : 448 kb/s
Channel(s) : 6 channels
Channel layout : L R C LFE Ls Rs
Sampling rate : 48.0 kHz
Frame rate : 31.250 FPS (1536 SPF)
Bit depth : 16 bits
Compression mode : Lossy
Stream size : 279 MiB (11%)
Title : Original
Language : English
Service kind : Complete Main
Default : No
Forced : No
Text #1
ID : 4
Format : UTF-8
Codec ID : S_TEXT/UTF8
Codec ID/Info : UTF-8 Plain Text
Duration : 1 h 17 min
Bit rate : 63 b/s
Count of elements : 1089
Stream size : 36.3 KiB (0%)
Title : Full
Language : English
Default : No
Forced : No
Text #2
ID : 5
Format : UTF-8
Codec ID : S_TEXT/UTF8
Codec ID/Info : UTF-8 Plain Text
Duration : 1 h 25 min
Bit rate : 75 b/s
Count of elements : 1406
Stream size : 47.4 KiB (0%)
Title : SDH
Language : English
Default : No
Forced : No
Menu
00:00:00.000 : en:Chapter 1
00:05:08.558 : en:Chapter 2
00:10:35.468 : en:Chapter 3
00:15:46.946 : en:Chapter 4
00:19:35.257 : en:Chapter 5
00:25:14.805 : en:Chapter 6
00:29:25.764 : en:Chapter 7
00:34:20.558 : en:Chapter 8
00:39:46.968 : en:Chapter 9
00:45:01.741 : en:Chapter 10
00:49:07.611 : en:Chapter 11
00:53:40.926 : en:Chapter 12
00:56:36.560 : en:Chapter 13
01:00:01.014 : en:Chapter 14
01:03:45.947 : en:Chapter 15
01:06:02.458 : en:Chapter 16
01:10:54.584 : en:Chapter 17
01:18:09.476 : en:Chapter 18
01:20:21.316 : en:Chapter 19
01:21:11.325 : en:Chapter 20[/pre]

Скриншоты





Display posts:    

Current time is: 15-Aug 17:21

All times are UTC ± 0


You cannot post new topics in this forum
You cannot reply to topics in this forum
You cannot edit your posts in this forum
You cannot delete your posts in this forum
You cannot vote in polls in this forum
You cannot attach files in this forum
You cannot download files in this forum

!ATTENTION!
The site does not give electronic versions of products, and is engaged only in a collecting and cataloguing of the references sent and published at a forum by our readers. If you are the legal owner of any submitted material and do not wish that the reference to it was in our catalogue, contact us and we shall immediately remove her. Files for an exchange on tracker are given by users of a site, and the administration does not bear the responsibility for their maintenance. The request to not fill in the files protected by copyrights, and also files of the illegal maintenance!