Ивановский Торрент трекер
Яндекс.Погода
 

[Цитировать]
HUNTER

Семь смертей по рецепту / В сетях мафии / Sept morts sur ordonnance
Страна: Франция, Германия, Испания
Студия: Belstar Productions, Films 66
Жанр: драма
Год выпуска: 1975
Продолжительность: 01:47:57
Перевод: Профессиональный (многоголосый закадровый) со вставками любительской одноголоски
Субтитры: английские, французские
Оригинальная аудиодорожка: французский
Режиссер: Жак Руффио / Jacques Rouffio
В ролях: Мишель Пикколи, Жерар Депардье, Джейн Биркин, Марина Влади, Шарль Ванель, Мишель Оклер, Моник Мелинан, Колин Серро, Антонио Феррандис, Георг Маришка, Хосе Мария Прада, Карл Шёнбёк, Этьен Драбель, Ги де Беллева, Клод Барруа, Мари Марчак, Валери Мересс, Мари-Клод Розье, Элизабет Штраусс, Паскаль Пеллен, Патриция Пеллен, Фидель Фернандез
Описание: Фильм основан на реальных событиях, произошедших с интервалом в 10 лет. В маленький городок приезжает талантливый хирург и открывает свой частный кабинет. Дела его идут успешно, и это очень не нравится владельцам местной клиники. На их совести уже есть самоубийство одного врача, у которого не было отбоя от пациентов. Теперь завистливые конкуренты начинают травлю хирурга и вскоре доводят его до инфаркта...
Доп. информация: Найденный в сети блюр, содержащий французский оригинал и французские цветные субтитры, преобразован в ремукс, в него добавлена синхронизированная Нордером многоголоска из релиза - http://rutracker.org/forum/viewtopic.php?t=3520080.
Вставки одноголоски в многоголоску: 00:17:11 - 00:22:13, 00:35:19 - 00:35:49, 00:38:28 - 00:39:46
Сэмпл: https://cloud.mail.ru/public/3QKT/o6GV4z4vA
Тип релиза: BDRemux 1080p
Контейнер: MKV
Видео: 25700 Кбит/сек, AVC (NTSC) 1920*1080 (16:9), 24,000 кадра/сек, CABAC
Аудио 1: Русский, 192 Кбит/сек, 48,0 КГц, 16 бит, 2 канала, AC-3
Аудио 2: Французский, DTS MA: 2.0 / 48,0 КГц / 1856 Кбит/сек / 24 бит / (DTS Core: 2.0 / 48,0 КГц / 1509 Кбит/сек / 24 бит)
Формат субтитров: UTF, PGS

MediaInfo

Общее
Уникальный идентификатор : 298595355586376073907014683759287160815 (0xE0A35FA80AE3ACC680743BDFF3334FEF)
Полное имя : I:\MONAR\Художественные фильмы\Зарубежное кино\Семь смертей по рецепту (1975) BDRemux 1080p.mkv
Формат : Matroska
Версия формата : Version 4 / Version 2
Размер файла : 20,9 Гбайт
Продолжительность : 1 ч. 47 м.
Режим общего битрейта : Переменный
Общий поток : 27,8 Мбит/сек
Название фильма : Sept mortes sur ordonnance (1975)
Дата кодирования : UTC 2018-03-04 11:56:06
Программа кодирования : mkvmerge v19.0.0 ('Brave Captain') 64-bit
Библиотека кодирования : libebml v1.3.5 + libmatroska v1.4.8
Видео
Идентификатор : 1
Формат : AVC
Формат/Информация : Advanced Video Codec
Профиль формата : High@L4.1
Настройки формата : CABAC / 4 Ref Frames
Параметр CABAC формата : Да
Параметр RefFrames формата : 4 кадра
Параметр GOP формата : M=3, N=24
Идентификатор кодека : V_MPEG4/ISO/AVC
Продолжительность : 1 ч. 47 м.
Вид битрейта : Переменный
Битрейт : 25,7 Мбит/сек
Максимальный битрейт : 30,0 Мбит/сек
Ширина : 1920 пикселей
Высота : 1080 пикселей
Соотношение сторон : 16:9
Режим частоты кадров : Постоянный
Частота кадров : 24,000 кадра/сек
Стандарт вещания : NTSC
Цветовое пространство : YUV
Субдискретизация насыщенности : 4:2:0
Битовая глубина : 8 бит
Тип развёртки : Прогрессивная
Бит/(Пиксели*Кадры) : 0.516
Размер потока : 19,4 Гбайт (93%)
Язык : French
Default : Да
Forced : Нет
Цветовой диапазон : Limited
Основные цвета : BT.709
Характеристики трансфера : BT.709
Коэффициенты матрицы : BT.709
Аудио #1
Идентификатор : 2
Формат : AC-3
Формат/Информация : Audio Coding 3
Идентификатор кодека : A_AC3
Продолжительность : 1 ч. 47 м.
Вид битрейта : Постоянный
Битрейт : 192 Кбит/сек
Каналы : 2 канала
Расположение каналов : Front: L R
Частота : 48,0 КГц
Частота кадров : 31,250 кадров/сек (1536 SPF)
Битовая глубина : 16 бит
Метод сжатия : С потерями
Размер потока : 148 Мбайт (1%)
Заголовок : MVO
Язык : Russian
ServiceKind/String : Complete Main
Default : Да
Forced : Нет
Аудио #2
Идентификатор : 3
Формат : DTS
Формат/Информация : Digital Theater Systems
Профиль формата : MA / Core
Идентификатор кодека : A_DTS
Продолжительность : 1 ч. 47 м.
Вид битрейта : Переменный / Постоянный
Битрейт : 1856 Кбит/сек / 1509 Кбит/сек
Каналы : 2 канала
Расположение каналов : Front: L R
Частота : 48,0 КГц
Частота кадров : 93,750 кадра/сек (512 SPF)
Битовая глубина : 24 бит
Метод сжатия : Без потерь / Lossy
Размер потока : 1,40 Гбайт (7%)
Заголовок : original
Язык : French
Default : Нет
Forced : Нет
Текст #1
Идентификатор : 4
Формат : UTF-8
Идентификатор кодека : S_TEXT/UTF8
Идентификатор кодека/Информация : UTF-8 Plain Text
Продолжительность : 1 ч. 45 м.
Битрейт : 52 бит/сек
ElementCount : 1192
Размер потока : 40,6 Кбайт (0%)
Заголовок : srt
Язык : English
Default : Нет
Forced : Нет
Текст #2
Идентификатор : 5
Формат : PGS
Режим смешивания : zlib
Идентификатор кодека : S_HDMV/PGS
Идентификатор кодека/Информация : Picture based subtitle format used on BDs/HD-DVDs
Продолжительность : 1 ч. 46 м.
Битрейт : 25,4 Кбит/сек
ElementCount : 2854
Размер потока : 19,3 Мбайт (0%)
Заголовок : sup
Язык : French
Default : Нет
Forced : Нет
Меню
00:00:00.000 : en:Chapter 1
00:08:55.208 : en:Chapter 2
00:18:03.291 : en:Chapter 3
00:28:09.000 : en:Chapter 4
00:35:57.875 : en:Chapter 5
00:45:00.166 : en:Chapter 6
00:52:52.875 : en:Chapter 7
01:02:43.791 : en:Chapter 8
01:11:17.166 : en:Chapter 9
01:20:53.750 : en:Chapter 10
01:30:30.250 : en:Chapter 11
01:39:12.583 : en:Chapter 12

Скриншоты

04.03.18 Торрент-файл перезалит. Добавлены английские субтитры по замечанию модератора. Сэмпл и отчёт перезалиты.

[Цитировать]
ybrf626

спасибо за раздачи!


Показать сообщения:    

Текущее время: 22-Сен 17:07

Часовой пояс: UTC ± 0


Вы не можете начинать темы
Вы не можете отвечать на сообщения
Вы не можете редактировать свои сообщения
Вы не можете удалять свои сообщения
Вы не можете голосовать в опросах
Вы не можете прикреплять файлы к сообщениям
Вы не можете скачивать файлы

!ВНИМАНИЕ!
Сайт не предоставляет электронные версии произведений, а занимается лишь коллекционированием и каталогизацией ссылок, присылаемых и публикуемых на форуме нашими читателями. Если вы являетесь правообладателем какого-либо представленного материала и не желаете, чтобы ссылка на него находилась в нашем каталоге, свяжитесь с нами, и мы незамедлительно удалим ее. Файлы для обмена на трекере предоставлены пользователями сайта, и администрация не несет ответственности за их содержание. Просьба не заливать файлы, защищенные авторскими правами, а также файлы нелегального содержания!