Важное объявление!
У Нас Все раздачи мультитрекерные, при нуле пиров в релизах, можете смело вставать на закачку!
 
Автор Сообщение

HUNTER

Стаж:
4 года 4 месяца
Сообщений:
56839

Репутация: 101

[+] [-]
Вне форума [Профиль] [ЛС]


Selena Gomez & the Scene
Love You Like a Love Song
-Год производства: 2011
Страна: Голливуд, США
Жанр: Pop
Продолжительность: 00:03:43-Описание:
«Selena Gomez & the Scene» — американская поп-рок группа, исполняющая песни на английском и испанском языках. Группа была образована в 2008 году в Голливуде (штат Калифорния, США). Наряду с вокалисткой и основательницей группы, Селеной Гомес, группа также состоит из гитариста Этана Робертса, бас-гитариста Джои Клемента (англ.)русск., ударника Грега Германа и клавишника Дэна Форреста.-Качество видео: HDTV
Формат видео: ts
Видео кодек: MPEG2
Аудио кодек: AC3
Видео: MPEG2 Video 1280x720 59.94fps 14.3 Mbps
Аудио: Dolby AC3 48000Hz 6ch 384kbps-

Скриншоты


-

Скринлист

-

Mediainfo

Код: copyText_writeLink('this.parentNode.parentNode.nextSibling.nextSibling'); General
ID : 1 (0x1)
Complete name : D:\Торенты\Selena Gomez & the Scene - Love You Like a Love Song Music Video 720p HDTV DD5.1 MPEG2-TrollHD.ts
Format : MPEG-TS
File size : 410 MiB
Duration : 3mn 43s
Overall bit rate mode : Variable
Overall bit rate : 15.4 Mbps
Video
ID : 589 (0x24D)
Menu ID : 1 (0x1)
Format : MPEG Video
Format_Commercial_IfAny : HDV 720p
Format version : Version 2
Format profile : Main@High
Format settings, BVOP : Yes
Format settings, Matrix : Custom
Codec ID : 2
Duration : 3mn 42s
Bit rate mode : Variable
Bit rate : 14.3 Mbps
Maximum bit rate : 18.0 Mbps
Width : 1 280 pixels
Height : 720 pixels
Display aspect ratio : 16:9
Frame rate : 59.940 fps
Color space : YUV
Chroma subsampling : 4:2:0
Bit depth : 8 bits
Scan type : Progressive
Compression mode : Lossy
Bits/(Pixel*Frame) : 0.258
Stream size : 379 MiB (92%)
Audio
ID : 588 (0x24C)
Menu ID : 1 (0x1)
Format : AC-3
Format/Info : Audio Coding 3
Mode extension : CM (complete main)
Codec ID : 129
Duration : 3mn 42s
Bit rate mode : Constant
Bit rate : 384 Kbps
Channel(s) : 6 channels
Channel positions : Front: L C R, Side: L R, LFE
Sampling rate : 48.0 KHz
Bit depth : 16 bits
Compression mode : Lossy
Delay relative to video : 16ms
Stream size : 10.2 MiB (2%)
Language : English

_________________
Показать сообщения:    

Текущее время: Сегодня 05:51

Часовой пояс: GMT



Вы не можете начинать темы
Вы не можете отвечать на сообщения
Вы не можете редактировать свои сообщения
Вы не можете удалять свои сообщения
Вы не можете голосовать в опросах
Вы не можете прикреплять файлы к сообщениям
Вы не можете скачивать файлы