Ивановский Торрент трекер
Яндекс.Погода
 

[Цитировать]
HUNTER


Selena Gomez & the Scene
Hit The Lights
-Год производства: 2011
Страна: Голливуд, США
Жанр: Pop
Продолжительность: 00:03:23-Описание:
Премьера нового клипа Селены Гомес и The Scene «Hit The Lights» состоялась 16 ноября 2011.-Качество видео: HDTV
Формат видео: mp4
Видео кодек: H.264
Аудио кодек: AAC-LC
Видео: 1920x1080 (16:9), 29,970 кадр/сек, 4363 Кбит/сек, 0.088 bit/pixel
Аудио: 44.100 kHz, 2 ch, ~144.00 kbps avg-

Скриншоты


-

Скринлист

-

Mediainfo

Код: copyText_writeLink('this.parentNode.parentNode.nextSibling.nextSibling'); General
Complete name : D:\Торенты\Selena Gomez & The Scene - Hit The Lights.mp4
Format : MPEG-4
Format profile : Base Media / Version 2
Codec ID : mp42
File size : 109 MiB
Duration : 3mn 23s
Overall bit rate mode : Variable
Overall bit rate : 4 510 Kbps
Encoded date : UTC 2011-11-03 18:10:10
Tagged date : UTC 2011-11-03 18:10:10
gsst : 0
gstd : 203430
gssd : B4A7DD6E7HH1321432281243943
gshh : v7.cache8.c.youtube.com
Video
ID : 1
Format : AVC
Format/Info : Advanced Video Codec
Format profile : High@L4.0
Format settings, CABAC : Yes
Format settings, ReFrames : 1 frame
Codec ID : avc1
Codec ID/Info : Advanced Video Coding
Duration : 3mn 23s
Bit rate : 4 363 Kbps
Maximum bit rate : 8 370 Kbps
Width : 1 920 pixels
Height : 1 080 pixels
Display aspect ratio : 16:9
Frame rate mode : Variable
Frame rate : 23.976 fps
Minimum frame rate : 23.762 fps
Maximum frame rate : 24.341 fps
Color space : YUV
Chroma subsampling : 4:2:0
Bit depth : 8 bits
Scan type : Progressive
Bits/(Pixel*Frame) : 0.088
Stream size : 106 MiB (97%)
Tagged date : UTC 2011-11-03 18:10:11
Audio
ID : 2
Format : AAC
Format/Info : Advanced Audio Codec
Format profile : LC
Codec ID : 40
Duration : 3mn 23s
Bit rate mode : Variable
Bit rate : 144 Kbps
Maximum bit rate : 176 Kbps
Channel(s) : 2 channels
Channel positions : Front: L R
Sampling rate : 44.1 KHz
Compression mode : Lossy
Stream size : 3.50 MiB (3%)
Title : IsoMedia File Produced by Google, 5-11-2011
Encoded date : UTC 2011-11-03 18:10:11
Tagged date : UTC 2011-11-03 18:10:11
Показать сообщения:    

Текущее время: 16-Окт 22:51

Часовой пояс: UTC - 1


Вы не можете начинать темы
Вы не можете отвечать на сообщения
Вы не можете редактировать свои сообщения
Вы не можете удалять свои сообщения
Вы не можете голосовать в опросах
Вы не можете прикреплять файлы к сообщениям
Вы не можете скачивать файлы

!ВНИМАНИЕ!
Сайт не предоставляет электронные версии произведений, а занимается лишь коллекционированием и каталогизацией ссылок, присылаемых и публикуемых на форуме нашими читателями. Если вы являетесь правообладателем какого-либо представленного материала и не желаете, чтобы ссылка на него находилась в нашем каталоге, свяжитесь с нами, и мы незамедлительно удалим ее. Файлы для обмена на трекере предоставлены пользователями сайта, и администрация не несет ответственности за их содержание. Просьба не заливать файлы, защищенные авторскими правами, а также файлы нелегального содержания!