Важное объявление!
У Нас Все раздачи мультитрекерные, при нуле пиров в релизах, можете смело вставать на закачку!
Статистика раздачи
Размер:     |    Зарегистрирован:     |    Скачан:     |   
Нет
 
     
 
 
Автор Сообщение

palych74

Стаж:
5 лет
Сообщений:
80

Репутация: 21

[+] [-]
Вне форума [Профиль] [ЛС]

Scorpions - Live at Wacken
Жанр: Rock
Продолжительность: 1:29:04
Год выпуска: 2012
Описание:
Доп. информация:
Wikipedia
Качество: HDTV 1080i
Контейнер: MKV
Видео кодек: H.264
Аудио кодек: AC3
Видео: H264 1280x720 11,9Mbps
Аудио: AC3 48KHz 448Kbps

Отчёт MediaInfo / BDInfo

Live at Wacken 2012.mkvFormat : MatroskaFormat version : Version 2File size : 7.84 GiBDuration : 1h 29mnOverall bit rate : 12.6 MbpsEncoded date : UTC 2012-08-12 07:53:35Writing application : mkvmerge v5.7.0 ('The Whirlwind') built on Jul 8 2012 20:08:51Writing library : libebml v1.2.3 + libmatroska v1.3.0
VideoID : 1Format : AVCFormat/Info : Advanced Video CodecFormat profile : High@L3.2Format settings, CABAC : YesFormat settings, ReFrames : 4 framesMuxing mode : Header strippingCodec ID : V_MPEG4/ISO/AVCDuration : 1h 29mnBit rate : 11.9 MbpsWidth : 1 280 pixelsHeight : 720 pixelsDisplay aspect ratio : 16:9Frame rate : 50.000 fpsColor space : YUVChroma subsampling : 4:2:0Bit depth : 8 bitsScan type : ProgressiveBits/(Pixel*Frame) : 0.258Stream size : 7.40 GiB (94%)Default : YesForced : No
AudioID : 2Format : AC-3Format/Info : Audio Coding 3Mode extension : CM (complete main)Format settings, Endianness : BigMuxing mode : Header strippingCodec ID : A_AC3Duration : 1h 29mnBit rate mode : ConstantBit rate : 448 KbpsChannel(s) : 6 channelsChannel positions : Front: L C R, Side: L R, LFESampling rate : 48.0 KHzBit depth : 16 bitsCompression mode : LossyStream size : 285 MiB (4%)Default : YesForced : No

Треклист

01. Make it real
02. Is there anybody there
03. The zoo
04. Coast to coast
05. Loving you sunday morning
06. The rhythm of love
07. Tease me, please me
08. Hit between the eyes
09. Dynamite
10. Blackout
11. Six string sting
12. Big city nights
13. Coming home
14. Still loving you
15. Rock you like a hurricane

Скриншоты

Cover:

Показать сообщения:    

Текущее время: Сегодня 00:48

Часовой пояс: GMT



Вы не можете начинать темы
Вы не можете отвечать на сообщения
Вы не можете редактировать свои сообщения
Вы не можете удалять свои сообщения
Вы не можете голосовать в опросах
Вы не можете прикреплять файлы к сообщениям
Вы не можете скачивать файлы