Ивановский Торрент трекер
Яндекс.Погода
 

[Quote]
HUNTER

Scoob! / Скуби-Ду
Страна: США
Жанр: Мультипликация
Продолжительность: 01:33:42
Год выпуска: 2020
Перевод: Профессиональный (многоголосый закадровый) [HDRezka Studio]
Русские субтитры: нет-Режиссёр: Тони Червоне / Tony Cervone
Роли озвучивали: Фрэнк Уэлкер, Уилл Форте, Иэн Армитидж, Аманда Сейфрид, Маккенна Грейс, Зак Эфрон, Пирс Ганьон, Джина Родригес, Ариана Гринблатт-Описание: Скуби-Ду возвращается на большие экраны! Новый полнометражный мультфильм о знаменитой собаке и команде друзей-детективов,
которые разоблачают «сверхъестественные» явления, служащие ширмой для чьих-то преступных планов. Скуби, Шэгги и их друзьям предстоит идти по
следу Дика Дастардли, совершающего одно злодеяние за другим.-Релиз: -Качество: WEB-DL 1080p
Формат: MKV
Видео: AVC, 1920x800 (2.40:1), 23.976 fps, 10 000 kb/s (0.206 bit/pixel)
Аудио 1: AC-3, 48.0 kHz, 6 ch, 640 kb/s, CBR (Russian) [HDRezka Studio]
Аудио 2: E-AC-3, 48.0 kHz, 6 ch, 640 kb/s, CBR (English)
Субтитры: English
Семпл: Забираем тут

Подробные технические данные

General
Unique ID : 319243126284845610566174801490842396768 (0xF02BFD5962EA298DE90B705F7D36A860)
Complete name : Scoob.2020.1080p.AMZN.WEB-DL.Rus.Eng-NTG_TeamHD.mkv
Format : Matroska
Format version : Version 4
File size : 5.80 GiB
Duration : 1 h 33 min
Overall bit rate : 8 868 kb/s
Movie name : Scoob! (2020) - Release for TeamHD
Encoded date : UTC 2020-05-20 19:42:19
Writing application : mkvmerge v45.0.0 ('Heaven in Pennies') 64-bit
Writing library : libebml v1.3.10 + libmatroska v1.5.2
Video
ID : 1
Format : AVC
Format/Info : Advanced Video Codec
Format profile : [email protected]
Format settings : CABAC / 4 Ref Frames
Format settings, CABAC : Yes
Format settings, ReFrames : 4 frames
Codec ID : V_MPEG4/ISO/AVC
Duration : 1 h 33 min
Bit rate mode : Constant
Bit rate : 7 585 kb/s
Nominal bit rate : 10 000 kb/s
Width : 1 920 pixels
Height : 800 pixels
Display aspect ratio : 2.40:1
Frame rate mode : Constant
Frame rate : 23.976 (24000/1001) FPS
Color space : YUV
Chroma subsampling : 4:2:0
Bit depth : 8 bits
Scan type : Progressive
Bits/(Pixel*Frame) : 0.206
Stream size : 4.97 GiB (86%)
Default : Yes
Forced : No
Color range : Limited
Color primaries : BT.709
Transfer characteristics : BT.709
Matrix coefficients : BT.709
Audio #1
ID : 2
Format : AC-3
Format/Info : Audio Coding 3
Commercial name : Dolby Digital
Codec ID : A_AC3
Duration : 1 h 33 min
Bit rate mode : Constant
Bit rate : 640 kb/s
Channel(s) : 6 channels
Channel layout : L R C LFE Ls Rs
Sampling rate : 48.0 kHz
Frame rate : 31.250 FPS (1536 SPF)
Bit depth : 16 bits
Compression mode : Lossy
Stream size : 429 MiB (7%)
Title : HDRezka Studio
Language : Russian
Service kind : Complete Main
Default : Yes
Forced : No
Audio #2
ID : 3
Format : E-AC-3
Format/Info : Enhanced AC-3
Commercial name : Dolby Digital Plus
Codec ID : A_EAC3
Duration : 1 h 33 min
Bit rate mode : Constant
Bit rate : 640 kb/s
Channel(s) : 6 channels
Channel layout : L R C LFE Ls Rs
Sampling rate : 48.0 kHz
Frame rate : 31.250 FPS (1536 SPF)
Compression mode : Lossy
Stream size : 429 MiB (7%)
Language : English
Service kind : Complete Main
Default : No
Forced : No
Text #1
ID : 4
Format : UTF-8
Codec ID : S_TEXT/UTF8
Codec ID/Info : UTF-8 Plain Text
Duration : 1 h 26 min
Bit rate : 66 b/s
Count of elements : 1549
Stream size : 42.1 KiB (0%)
Language : English
Default : No
Forced : No
Text #2
ID : 5
Format : UTF-8
Codec ID : S_TEXT/UTF8
Codec ID/Info : UTF-8 Plain Text
Duration : 1 h 33 min
Bit rate : 75 b/s
Count of elements : 1882
Stream size : 51.8 KiB (0%)
Title : SDH
Language : English
Default : No
Forced : No
Menu
00:00:00.000 : en:Scene 1
00:00:20.000 : en:First Meet
00:05:19.000 : en:A Special Gift
00:06:50.000 : en:Halloween
00:11:46.000 : en:Montage
00:12:39.000 : en:Investor
00:15:14.000 : en:Bowling
00:18:51.000 : en:The Falcon Fury
00:26:11.000 : en:Adventure Calling
00:27:22.000 : en:Guilt
00:30:07.000 : en:Dastardly Meltdown
00:31:57.000 : en:DM Plans
00:33:52.000 : en:Lineage
00:34:39.000 : en:Romania
00:42:27.000 : en:New Clothes
00:44:57.000 : en:Forgotten Lunch
00:48:26.000 : en:Ego
00:49:00.000 : en:The Key
00:55:11.000 : en:Choice
00:57:53.000 : en:Prehistoric Help
01:00:03.000 : en:Well Timed Fred
01:01:21.000 : en:Arena Showdown
01:05:40.000 : en:Heroic Speech
01:07:38.000 : en:Bad Bargain
01:11:06.000 : en:Reunited
01:13:18.000 : en:Final Fight
01:19:33.000 : en:Locked
01:25:33.000 : en:Grand Opening
01:27:15.000 : en:End Credits

Скриншоты




Display posts:    

Current time is: 04-Jun 11:41

All times are UTC ± 0


You cannot post new topics in this forum
You cannot reply to topics in this forum
You cannot edit your posts in this forum
You cannot delete your posts in this forum
You cannot vote in polls in this forum
You cannot attach files in this forum
You cannot download files in this forum

!ATTENTION!
The site does not give electronic versions of products, and is engaged only in a collecting and cataloguing of the references sent and published at a forum by our readers. If you are the legal owner of any submitted material and do not wish that the reference to it was in our catalogue, contact us and we shall immediately remove her. Files for an exchange on tracker are given by users of a site, and the administration does not bear the responsibility for their maintenance. The request to not fill in the files protected by copyrights, and also files of the illegal maintenance!