Ивановский Торрент трекер
Яндекс.Погода
 

[Quote]
HUNTER

--Счастливое число Слевина / Lucky Number Slevin- Год выпуска: 2006
Страна: США
Жанр: Триллер, криминал, драма
Продолжительность: 01:49
Перевод: Профессиональный (полное дублирование)
Режиссер: Пол МакГиган /Paul McGuigan/-В ролях:
Джош Хартнетт /Josh Hartnett/, Брюс Уиллис /Bruce Willis/, Морган Фримен /Morgan Freeman/, Люси Лиу /Lucy Liu/, Стенли Туччи /Stanley Tucci/, Бен Кингсли /Ben Kingsley/-Описание:
Детектив про честных киллеров с прологом и эпилогом.
Слевину не везет. Дом опечатан, девушка ушла к другому… Его друг Ник уезжает из Нью-Йорка и предлагает Слевину пожить в пустой квартире. В это время крупный криминальный авторитет по прозвищу Босс хочет рассчитаться со своим бывшим партнером Рабби за убийство сына и в отместку «заказать» его наследника.
-Доп. информация:
IMDB 7.7/10 (22,219 votes)
Сэмпл на рапиде
Рип : HDTV Russian Team : Grek
-
Качество: HDTV
Формат: AVI

MediaInfo

Общее
Полное имя : D:\Lucky.Number.Slevin.HDRip.XviD.HRT.avi
Формат : AVI
Формат/Информация : Audio Video Interleave
Профиль формата : OpenDML
Размер файла : 4,24 Гбайт
Продолжительность : 1 ч. 49 м.
Общий поток : 5534 Кбит/сек
Режиссёр : Grek
Программа кодирования : VirtualDubMod 1.5.10.1 (build 2439/release)
Авторское право : HDTV Russian Team
Видео
Идентификатор : 0
Формат : MPEG-4 Visual
Профиль формата : [email protected]
Параметр BVOP формата : Нет
Параметр QPel формата : Нет
Параметр GMC формата : Без точки перехода
Параметр матрицы формата : Default (H.263)
Идентификатор кодека : XVID
Идентификатор кодека/Подсказка : XviD
Продолжительность : 1 ч. 49 м.
Битрейт : 5079 Кбит/сек
Ширина : 1280 пикселей
Высота : 720 пикселей
Соотношение сторон : 16:9
Частота кадров : 23,976 (24000/1001) кадра/сек
Цветовое пространство : YUV
Субдискретизация насыщенности : 4:2:0
Битовая глубина : 8 бит
Тип развёртки : Прогрессивная
Метод сжатия : С потерями
Бит/(Пиксели*Кадры) : 0.230
Размер потока : 3,89 Гбайт (92%)
Библиотека кодирования : XviD 1.2.0SMP (UTC 2006-01-08)
Аудио
Идентификатор : 1
Формат : AC-3
Формат/Информация : Audio Coding 3
Параметр Endianness формата : Big
Идентификатор кодека : 2000
Продолжительность : 1 ч. 49 м.
Вид битрейта : Постоянный
Битрейт : 448 Кбит/сек
Каналы : 6 каналов
Расположение каналов : Front: L C R, Side: L R, LFE
Частота : 48,0 КГц
Частота кадров : 31,250 кадров/сек (1536 spf)
Битовая глубина : 16 бит
Метод сжатия : С потерями
Задержка видео : 500 мс.
Размер потока : 352 Мбайт (8%)
Выравнивание : Разделение по промежуткам
Продолжительность промежутка : 64 мс. (1,53 видеокадра)
Время предзагрузки промежутка : 64 мс.
ServiceKind/String : Complete Main

Скриншоты



Display posts:    

Current time is: 10-Aug 23:58

All times are UTC ± 0


You cannot post new topics in this forum
You cannot reply to topics in this forum
You cannot edit your posts in this forum
You cannot delete your posts in this forum
You cannot vote in polls in this forum
You cannot attach files in this forum
You cannot download files in this forum

!ATTENTION!
The site does not give electronic versions of products, and is engaged only in a collecting and cataloguing of the references sent and published at a forum by our readers. If you are the legal owner of any submitted material and do not wish that the reference to it was in our catalogue, contact us and we shall immediately remove her. Files for an exchange on tracker are given by users of a site, and the administration does not bear the responsibility for their maintenance. The request to not fill in the files protected by copyrights, and also files of the illegal maintenance!