Ивановский Торрент трекер
Яндекс.Погода
 

[Цитировать]
HUNTER

Описание: Saul Alvarez vs Liam Smith & Undercard [17.09.2016 576p RU] WEB-DL-Rpunk
Дата проведения: 17/09/2016
Место проведения: AT&T Stadium, Arlington, Texas, USA
Язык комментариев: Русский

Fight card

супер-полусредний вес Saul Alvarez 47 1 1 vs Liam Smith 23 0 1
WBO World супер-полусредний вес титул
средний вес Gabriel Rosado 23 9 0 vs Willie Monroe Jr 20 2 0
вакантный WBO Inter-Continental средний вес титул
полулегкий вес Joseph Diaz 21 0 0 vs Andrew Cancio 17 3 2
NABF полулегкий вес титул
вес супер-петуха Diego De La Hoya 15 0 0 vs Luis Orlando Del Valle 22 2 0
WBC Youth World вес супер-петуха титул

Video Info

General
Complete name : Saul Alvarez vs Liam Smith & Undercard [17.09.2016 576p RU] WEB-DL-Rpunk.mp4
Format : MPEG-4
Format profile : Base Media
Codec ID : isom
File size : 4.37 GiB
Duration : 3h 57mn
Overall bit rate mode : Variable
Overall bit rate : 2 635 Kbps
Writing application : Lavf57.19.100
Video
ID : 1
Format : AVC
Format/Info : Advanced Video Codec
Format profile : Main@L3
Format settings, CABAC : Yes
Format settings, ReFrames : 4 frames
Codec ID : avc1
Codec ID/Info : Advanced Video Coding
Duration : 3h 57mn
Source duration : 3h 57mn
Bit rate : 2 500 Kbps
Width : 720 pixels
Height : 576 pixels
Display aspect ratio : 16:9
Frame rate mode : Constant
Frame rate : 25.000 fps
Standard : PAL
Color space : YUV
Chroma subsampling : 4:2:0
Bit depth : 8 bits
Scan type : Progressive
Bits/(Pixel*Frame) : 0.241
Stream size : 4.14 GiB (95%)
Source stream size : 4.14 GiB (95%)
Language : English
Color range : Limited
mdhd_Duration : 14236432
Audio
ID : 2
Format : AAC
Format/Info : Advanced Audio Codec
Format profile : LC
Codec ID : 40
Duration : 3h 57mn
Bit rate mode : Variable
Bit rate : 128 Kbps
Channel(s) : 2 channels
Channel positions : Front: L R
Sampling rate : 44.1 KHz
Compression mode : Lossy
Stream size : 217 MiB

Screenshots





Показать сообщения:    

Текущее время: 17-Дек 00:42

Часовой пояс: UTC ± 0


Вы не можете начинать темы
Вы не можете отвечать на сообщения
Вы не можете редактировать свои сообщения
Вы не можете удалять свои сообщения
Вы не можете голосовать в опросах
Вы не можете прикреплять файлы к сообщениям
Вы не можете скачивать файлы

!ВНИМАНИЕ!
Сайт не предоставляет электронные версии произведений, а занимается лишь коллекционированием и каталогизацией ссылок, присылаемых и публикуемых на форуме нашими читателями. Если вы являетесь правообладателем какого-либо представленного материала и не желаете, чтобы ссылка на него находилась в нашем каталоге, свяжитесь с нами, и мы незамедлительно удалим ее. Файлы для обмена на трекере предоставлены пользователями сайта, и администрация не несет ответственности за их содержание. Просьба не заливать файлы, защищенные авторскими правами, а также файлы нелегального содержания!