Ивановский Торрент трекер
Яндекс.Погода
 

[Quote]
HUNTER

Самый жестокий год / A Most Violent Year
Страна: США
Студия: Before The Door Pictures
Жанр: боевик, триллер, драма, криминал
Год выпуска: 2014
Продолжительность: 02:04:56
Перевод: Любительский (двухголосый закадровый) Антон Емельянов & Анастасия Снегирёва
Cубтитры: Rus, Eng
Оригинальная аудиодорожка: английский
Режиссер: Джей Си Чендор / J.C. Chandor
В ролях: Оскар Айзек, Джессика Честейн, Дэвид Ойелоуо, Алессандро Нивола, Альберт Брукс, Элиес Габел, Каталина Сандино Морено, Питер Герети, Кристофер Эбботт, Эшли Уильямс
Описание: События фильма разворачиваются преимущественно на Манхэттене начала 1980-х годов, когда был зафиксирован всплеск уровня преступности. Главный герой — иммигрант из латинской Америки, прибывший в США с амбициозными мечтами и вскоре действительно добившийся большого успеха в бизнесе. Однако уличная преступность, охватившая Нью-Йорк, коррупция и моральное разложение создают для него и его семьи большие проблемы.

Тип релиза: BDRip 720p
Контейнер: MKV
Видео: MPEG-4 AVC, 4758 Кбит/с, 1280x534, 23,976 fps
Аудио: Rus, AC3, 448 kb/s (6 ch), 48 kHz
Аудио 2: Eng, AC3, 640 kb/s (6 ch), 48 kHz
Формат субтитров: softsub (SRT)

MediaInfo

Format : Matroska
Format version : Version 4 / Version 2
File size : 5.21 GiB
Duration : 2h 4mn
Overall bit rate : 5 965 Kbps
Movie name : Самый жестокий год. (Tonik)
Encoded date : UTC 2015-04-04 05:07:27
Writing application : mkvmerge v7.1.0 ('Good Love') 64bit built on Jul 27 2014 13:06:55
Writing library : libebml v1.3.0 + libmatroska v1.4.1
_STATISTICS_WRITING_APP : mkvmerge v7.1.0 ('Good Love') 64bit built on Jul 27 2014 13:06:55
_STATISTICS_WRITING_DATE_UTC : 2015-04-04 05:07:27
_STATISTICS_TAGS : BPS DURATION NUMBER_OF_FRAMES NUMBER_OF_BYTES
DURATION : 01:57:14.285000000
NUMBER_OF_FRAMES : 1530
NUMBER_OF_BYTES : 71747
Video
ID : 1
Format : AVC
Format/Info : Advanced Video Codec
Format profile : [email protected]
Format settings, CABAC : Yes
Format settings, ReFrames : 12 frames
Codec ID : V_MPEG4/ISO/AVC
Duration : 2h 4mn
Bit rate : 4 758 Kbps
Width : 1 280 pixels
Height : 534 pixels
Display aspect ratio : 2.40:1
Original display aspect ratio : 2.40:1
Frame rate mode : Constant
Frame rate : 23.976 fps
Color space : YUV
Chroma subsampling : 4:2:0
Bit depth : 8 bits
Scan type : Progressive
Bits/(Pixel*Frame) : 0.290
Stream size : 4.15 GiB (80%)
Writing library : x264 core 146 r0+2584 6cf85c6 t_mod_Custom [[email protected] ]
Encoding settings : cabac=1 / ref=12 / deblock=1:-3:-3 / analyse=0x3:0x133 / me=umh / subme=10 / psy=1 / fade_compensate=0.00 / psy_rd=0.95:0.00 / mixed_ref=1 / me_range=24 / chroma_me=1 / trellis=2 / 8x8dct=1 / cqm=0 / deadzone=21,11 / fast_pskip=0 / chroma_qp_offset=-2 / threads=12 / lookahead_threads=2 / sliced_threads=0 / nr=0 / decimate=0 / interlaced=0 / bluray_compat=0 / constrained_intra=0 / fgo=0 / bframes=9 / b_pyramid=2 / b_adapt=2 / b_bias=0 / direct=3 / weightb=1 / open_gop=0 / weightp=2 / keyint=250 / keyint_min=23 / scenecut=40 / intra_refresh=0 / rc_lookahead=60 / rc=crf / mbtree=0 / crf=14.7000 / qcomp=0.65 / qpmin=0:0:0 / qpmax=69:69:69 / qpstep=4 / vbv_maxrate=62500 / vbv_bufsize=78125 / crf_max=0.0 / nal_hrd=none / filler=0 / ip_ratio=1.40 / pb_ratio=1.30 / aq=3:0.90 / aq-sensitivity=10.00 / aq-factor=1.00:1.00:1.00 / aq2=0 / aq3=0 / zones=33730,35524,crf=13.2/42522,42792,crf=13.2/43572,44735,crf=13.2
Language : English
Default : Yes
Forced : No
Matrix coefficients : BT.709
_STATISTICS_WRITING_APP : mkvmerge v7.1.0 ('Good Love') 64bit built on Jul 27 2014 13:06:55
_STATISTICS_WRITING_DATE_UTC : 2015-04-04 05:07:27
_STATISTICS_TAGS : BPS DURATION NUMBER_OF_FRAMES NUMBER_OF_BYTES
DURATION : 02:04:56.322000000
NUMBER_OF_FRAMES : 179732
NUMBER_OF_BYTES : 4567356257
Audio #1
ID : 2
Format : AC-3
Format/Info : Audio Coding 3
Mode extension : CM (complete main)
Format settings, Endianness : Big
Codec ID : A_AC3
Duration : 2h 4mn
Bit rate mode : Constant
Bit rate : 448 Kbps
Channel(s) : 6 channels
Channel positions : Front: L C R, Side: L R, LFE
Sampling rate : 48.0 KHz
Bit depth : 16 bits
Compression mode : Lossy
Stream size : 400 MiB (8%)
Title : Антон Емельянов & Анастасия Снегирёва
Language : Russian
Default : Yes
Forced : No
Audio #2
ID : 3
Format : AC-3
Format/Info : Audio Coding 3
Mode extension : CM (complete main)
Format settings, Endianness : Big
Codec ID : A_AC3
Duration : 2h 4mn
Bit rate mode : Constant
Bit rate : 640 Kbps
Channel(s) : 6 channels
Channel positions : Front: L C R, Side: L R, LFE
Sampling rate : 48.0 KHz
Bit depth : 16 bits
Compression mode : Lossy
Stream size : 572 MiB (11%)
Language : English
Default : No
Forced : No
Text #1
ID : 4
Format : UTF-8
Codec ID : S_TEXT/UTF8
Codec ID/Info : UTF-8 Plain Text
Language : Russian
Default : No
Forced : No
Text #2
ID : 5
Format : UTF-8
Codec ID : S_TEXT/UTF8
Codec ID/Info : UTF-8 Plain Text
Language : English
Default : No
Forced : No
Text #3
ID : 6
Format : UTF-8
Codec ID : S_TEXT/UTF8
Codec ID/Info : UTF-8 Plain Text
Title : SDH
Language : English
Default : No
Forced : No
Menu
00:00:00.000 : en:00:00:00.000
00:09:19.642 : en:00:09:19.642
00:13:44.240 : en:00:13:44.240
00:20:48.330 : en:00:20:48.330
00:27:38.198 : en:00:27:38.198
00:36:31.064 : en:00:36:31.064
00:44:45.349 : en:00:44:45.349
00:50:33.697 : en:00:50:33.697
00:57:57.974 : en:00:57:57.974
01:08:19.345 : en:01:08:19.345
01:13:22.273 : en:01:13:22.273
01:23:07.357 : en:01:23:07.357
01:31:17.222 : en:01:31:17.222
01:39:54.030 : en:01:39:54.030
01:50:43.095 : en:01:50:43.095
01:56:46.249 : en:01:56:46.249

Скриншоты



Display posts:    

Current time is: 01-Jun 01:23

All times are UTC ± 0


You cannot post new topics in this forum
You cannot reply to topics in this forum
You cannot edit your posts in this forum
You cannot delete your posts in this forum
You cannot vote in polls in this forum
You cannot attach files in this forum
You cannot download files in this forum

!ATTENTION!
The site does not give electronic versions of products, and is engaged only in a collecting and cataloguing of the references sent and published at a forum by our readers. If you are the legal owner of any submitted material and do not wish that the reference to it was in our catalogue, contact us and we shall immediately remove her. Files for an exchange on tracker are given by users of a site, and the administration does not bear the responsibility for their maintenance. The request to not fill in the files protected by copyrights, and also files of the illegal maintenance!