Важное объявление!
У Нас Все раздачи мультитрекерные, при нуле пиров в релизах, можете смело вставать на закачку!
Статистика раздачи
Размер:     |    Зарегистрирован:     |    Скачан:     |   
Нет
 
     
 
 
Автор Сообщение

HUNTER

Стаж:
5 лет
Сообщений:
67947

Репутация: 101

[+] [-]
Вне форума [Профиль] [ЛС]

Sammy Vasquez vs. Emmanuel Lartey & Undercard / Сэмми Васкес - Эммануэль Ларти + Андеркарт-
Дата/Год выпуска: 20.02.2015
Вид спорта: Бокс
Язык комментариев: Английский
Канал: Showtime HD
Место проведения: "CONSOL Energy Center", Питтсбург, Пенсильвания, США.-Описание: Перспективный и не имеющий поражений американский боксер полусреднего веса (до 66,7 кг) Сэмми Васкес (17-0, 13 КО) выйдет на ринг против 33-х летнего ганца Эммануэля Лартея Ларти (16-2-1, 7 КО). Сэмми Васкес свой предыдущий бой провел также в Питтсбурге (штат Пенсильвания, США) 14 ноября прошлого года. Тогда Васкес выиграл нокаутом в первом раунде у панамца Альберто Москеры, попутно завоевав вакантный титул WBC FECARBOX в полусреднем весе.-Автор рипа/записи: nabucghost-Качество: HDTV 720p
Формат: MKV
Видео: 1280x720 (16:9), 59,940 fps, H264, ~8000 kbps avg, ~0.144 bit/pixel
Аудио: 48 kHz, AC3, 2/0 (L,R) ch, ~256.00 kbps avg-

Список боев

1. Claudio Marrero [17-1] vs. Orlando Rizo [18-5] - 8 Rounds in the Featherweight Division
2. Umberto Savigne [12-1] vs. Craig Baker [15-0] - 10 Rounds in the Light Heavyweight Division
3. Sammy Vasquez [17-0] vs. Emmanuel Lartey [16-2-1] - 10 Rounds in the Welterweight Division

Продолжительность

1. Claudio Marrero vs. Orlando Rizo (0:42:01)
2. Umberto Savigne vs. Craig Baker (0:16:12)
3. Sammy Vasquez vs. Emmanuel Lartey (0:54:37)

Скриншоты

MediaInfo

1.-.Claudio.Marrero.vs.Orlando.Rizo.60fps.HDTV.720p.x264-ENG-lrn.mkv
GeneralUnique ID : 220287512882851429900273369848636063113 (0xA5B9D4ED257C05699D305AD7E0F13D89)Complete name : E:\uTorrent.Temp\Temp\Sammy Vasquez vs. Emmanuel Lartey & Undercard [60fps, HDTV 720p, ENG]\1.-.Claudio.Marrero.vs.Orlando.Rizo.60fps.HDTV.720p.x264-ENG-lrn.mkvFormat : MatroskaFormat version : Version 4 / Version 2File size : 2.43 GiBDuration : 42mn 1sOverall bit rate : 8 267 KbpsMovie name : 'Sammy Vasquez vs. Emmanuel Lartey & Undercard [60fps, HDTV 720p, ENG]' by lrn © 2015Encoded date : UTC 2010-02-22 21:41:31Writing application : mkvmerge v5.9.0 ('On The Loose') built on Dec 9 2012 15:37:01Writing library : libebml v1.3.0 + libmatroska v1.4.0
VideoID : 1Format : AVCFormat/Info : Advanced Video CodecFormat profile : High@L4.0Format settings, CABAC : YesFormat settings, ReFrames : 3 framesCodec ID : V_MPEG4/ISO/AVCDuration : 42mn 1sBit rate : 7 847 KbpsWidth : 1 280 pixelsHeight : 720 pixelsDisplay aspect ratio : 16:9Frame rate mode : ConstantFrame rate : 59.880 fpsOriginal frame rate : 59.940 fpsStandard : ComponentColor space : YUVChroma subsampling : 4:2:0Bit depth : 8 bitsScan type : ProgressiveBits/(Pixel*Frame) : 0.142Stream size : 2.30 GiB (95%)Default : YesForced : NoColor primaries : BT.709Transfer characteristics : BT.709Matrix coefficients : BT.709Color range : Limited
AudioID : 2Format : AC-3Format/Info : Audio Coding 3Mode extension : CM (complete main)Format settings, Endianness : BigCodec ID : A_AC3Duration : 42mn 1sBit rate mode : ConstantBit rate : 256 KbpsChannel(s) : 2 channelsChannel positions : Front: L RSampling rate : 48.0 KHzBit depth : 16 bitsCompression mode : LossyDelay relative to video : 6msStream size : 77.0 MiB (3%)Language : EnglishDefault : YesForced : No

2.-.Umberto.Savigne.vs.Craig.Baker.60fps.HDTV.720p.x264-ENG-lrn.mkv

GeneralUnique ID : 235860729120172411569026914361288765963 (0xB1711FC47A2BF293AF3FD600B41D320B)Complete name : E:\uTorrent.Temp\Temp\Sammy Vasquez vs. Emmanuel Lartey & Undercard [60fps, HDTV 720p, ENG]\2.-.Umberto.Savigne.vs.Craig.Baker.60fps.HDTV.720p.x264-ENG-lrn.mkvFormat : MatroskaFormat version : Version 4 / Version 2File size : 958 MiBDuration : 16mn 12sOverall bit rate : 8 262 KbpsMovie name : 'Sammy Vasquez vs. Emmanuel Lartey & Undercard [60fps, HDTV 720p, ENG]' by lrn © 2015Encoded date : UTC 2010-02-22 21:41:31Writing application : mkvmerge v5.9.0 ('On The Loose') built on Dec 9 2012 15:37:01Writing library : libebml v1.3.0 + libmatroska v1.4.0
VideoID : 1Format : AVCFormat/Info : Advanced Video CodecFormat profile : High@L4.0Format settings, CABAC : YesFormat settings, ReFrames : 3 framesCodec ID : V_MPEG4/ISO/AVCDuration : 16mn 12sBit rate : 7 842 KbpsWidth : 1 280 pixelsHeight : 720 pixelsDisplay aspect ratio : 16:9Frame rate mode : ConstantFrame rate : 60.000 fpsOriginal frame rate : 59.940 fpsStandard : ComponentColor space : YUVChroma subsampling : 4:2:0Bit depth : 8 bitsScan type : ProgressiveBits/(Pixel*Frame) : 0.142Stream size : 909 MiB (95%)Default : YesForced : NoColor primaries : BT.709Transfer characteristics : BT.709Matrix coefficients : BT.709Color range : Limited
AudioID : 2Format : AC-3Format/Info : Audio Coding 3Mode extension : CM (complete main)Format settings, Endianness : BigCodec ID : A_AC3Duration : 16mn 12sBit rate mode : ConstantBit rate : 256 KbpsChannel(s) : 2 channelsChannel positions : Front: L RSampling rate : 48.0 KHzBit depth : 16 bitsCompression mode : LossyDelay relative to video : 6msStream size : 29.7 MiB (3%)Language : EnglishDefault : YesForced : No

3.-.Sammy.Vasquez.vs.Emmanuel.Lartey.60fps.HDTV.720p.x264-ENG-lrn.mkv

GeneralUnique ID : 251128067124470253544271032508079631692 (0xBCED81A5BB3D27D2BCAEF8B6BD4B6D4C)Complete name : E:\uTorrent.Temp\Temp\Sammy Vasquez vs. Emmanuel Lartey & Undercard [60fps, HDTV 720p, ENG]\3.-.Sammy.Vasquez.vs.Emmanuel.Lartey.60fps.HDTV.720p.x264-ENG-lrn.mkvFormat : MatroskaFormat version : Version 4 / Version 2File size : 3.15 GiBDuration : 54mn 37sOverall bit rate : 8 250 KbpsMovie name : 'Sammy Vasquez vs. Emmanuel Lartey & Undercard [60fps, HDTV 720p, ENG]' by lrn © 2015Encoded date : UTC 2010-02-22 21:41:31Writing application : mkvmerge v5.9.0 ('On The Loose') built on Dec 9 2012 15:37:01Writing library : libebml v1.3.0 + libmatroska v1.4.0
VideoID : 1Format : AVCFormat/Info : Advanced Video CodecFormat profile : High@L4.0Format settings, CABAC : YesFormat settings, ReFrames : 3 framesCodec ID : V_MPEG4/ISO/AVCDuration : 54mn 37sBit rate : 7 829 KbpsWidth : 1 280 pixelsHeight : 720 pixelsDisplay aspect ratio : 16:9Frame rate mode : ConstantFrame rate : 59.880 fpsOriginal frame rate : 59.940 fpsStandard : ComponentColor space : YUVChroma subsampling : 4:2:0Bit depth : 8 bitsScan type : ProgressiveBits/(Pixel*Frame) : 0.142Stream size : 2.99 GiB (95%)Default : YesForced : NoColor primaries : BT.709Transfer characteristics : BT.709Matrix coefficients : BT.709Color range : Limited
AudioID : 2Format : AC-3Format/Info : Audio Coding 3Mode extension : CM (complete main)Format settings, Endianness : BigCodec ID : A_AC3Duration : 54mn 37sBit rate mode : ConstantBit rate : 256 KbpsChannel(s) : 2 channelsChannel positions : Front: L RSampling rate : 48.0 KHzBit depth : 16 bitsCompression mode : LossyDelay relative to video : 19msStream size : 100 MiB (3%)Language : EnglishDefault : YesForced : No

_________________
Показать сообщения:    

Текущее время: Сегодня 10:50

Часовой пояс: GMT



Вы не можете начинать темы
Вы не можете отвечать на сообщения
Вы не можете редактировать свои сообщения
Вы не можете удалять свои сообщения
Вы не можете голосовать в опросах
Вы не можете прикреплять файлы к сообщениям
Вы не можете скачивать файлы