Ивановский Торрент трекер
Яндекс.Погода
 

[Quote]
HUNTER

Самка богомола- Год выпуска: 2021
Производство: Россия, ООО «Старт Студио», «Профит»
Жанр: Триллер, драма, детектив
Продолжительность: 2 х ~ 00:50:00
Субтитры: Отсутствуют
Версия: Без цензуры-Режиссёр: Нурбек Эген
В ролях: Ирина Розанова, Павел Чинарёв, Ольга Сутулова, Екатерина Кузнецова (II), Сабина Ахмедова, Александр Марин, Сергей Заморев, Виктория Агалакова, Арсений Мыцык, Кирилл Букин, Дмитрий Мальков, Игорь Девлекамов, Сергей Шоколов, Андрей Некрасов (II), Вера Плешанова, Ростислав Харин, Владислав Орлов (II), Сергей Занин, Никита Крахмалёв, Иван Капорин, Анна Щетинина-Описание: Серийная убийца Жанна Дронова по прозвищу «самка богомола» отбывает срок в колонии строгого режима с тех пор, как призналась в восьми особо жестоких убийствах. Жанна убивала только мужчин — педофилов, насильников и неверных мужей. Узнав, что у нее появился подражатель, женщина предлагает полиции помощь при соблюдении двух условий. Первое: она покинет колонию на время расследования. Второе: делом будет заниматься ее сын Денис, который не общался с матерью последние 20 лет.-КиноПоиск | Сэмпл |
Премьера: 14 октября 2021 года (START)
Реклама: Отсутствует-Качество: WEBRip
Формат: AVI
Видео кодек: XviD
Аудио кодек: AC3
Видео: XviD, 720x360, ~ 1650 Кбит/с, 0.255 bit/pixel, 25 Кадр/с
Аудио: AC3, 48,0 КГц, 2 ch, 192 Кбит/с
-

Скриншоты

-

MI

Общее
Полное имя : D:\Samka.bogomola.2021.WEB-DLRip.25Kuzmich\Samka.bogomola.e01.WEB-DLRip.25Kuzmich.avi
Формат : AVI
Формат/Информация : Audio Video Interleave
Размер файла : 666 Мбайт
Продолжительность : 50 м. 15 с.
Общий поток : 1 852 Кбит/сек
Программа кодирования : VirtualDubMod 1.5.10.3 | www.virtualdub-fr.org || (build 2550/release)
Библиотека кодирования : VirtualDubMod build 2550/release
Видео
Идентификатор : 0
Формат : MPEG-4 Visual
Профиль формата : Advanced [email protected]
Настройки формата : BVOP1
Параметр BVOP формата : 1
Параметр QPel формата : Нет
Параметр GMC формата : Без точки перехода
Параметр матрицы формата : Default (MPEG)
Идентификатор кодека : XVID
Идентификатор кодека/Подсказка : XviD
Продолжительность : 50 м. 15 с.
Битрейт : 1 650 Кбит/сек
Ширина : 720 пикселей
Высота : 360 пикселей
Соотношение сторон : 2,000
Частота кадров : 25,000 кадров/сек
Цветовое пространство : YUV
Субдискретизация насыщенности : 4:2:0
Битовая глубина : 8 бит
Тип развёртки : Прогрессивная
Метод сжатия : С потерями
Бит/(Пиксели*Кадры) : 0.255
Размер потока : 593 Мбайт (89%)
Библиотека кодирования : XviD 73
Аудио
Идентификатор : 1
Формат : AC-3
Формат/Информация : Audio Coding 3
Коммерческое название : Dolby Digital
Идентификатор кодека : 2000
Продолжительность : 50 м. 15 с.
Вид битрейта : Постоянный
Битрейт : 192 Кбит/сек
Каналы : 2 канала
Channel layout : L R
Частота : 48,0 КГц
Частота кадров : 31,250 кадров/сек (1536 SPF)
Метод сжатия : С потерями
Размер потока : 69,0 Мбайт (10%)
Выравнивание : Разделение по промежуткам
Продолжительность промежутка : 40 мс. (1,00 видеокадр)
Время предзагрузки промежутка : 500 мс.
Service kind : Complete Main

Внимание! Раздача ведётся путём добавления новых серий

Внимание! Раздача ведётся путём добавления новых серий; при каждом добавлении создаётся новый торрент.
Чтобы начать докачку новой серии, пользователям необходимо сделать следующее:
1. Остановить скачивание;
2. Удалить старый торрент у себя из клиента (старые серии удалять не надо);
3. Скачать новый торрент и запустить его у себя в клиенте вместо старого, при этом указать клиенту путь в старую папку куда и должно происходить скачивание новых серий. Ваш клиент при этом должен произвести хеширование (проверку) старой папки и будет докачивать только те серии, которых у вас ещё нет. Старые серии при этом не удаляются, а продолжают раздаваться! Eсли вы уже удалили старые серии, то предотвратить повторную закачку старых серий можно, отжав галочку в соответствующих местах при запуске нового торрента.
-Предыдущие и альтернативные раздачи


Display posts:    

Current time is: 28-Oct 08:37

All times are UTC ± 0


You cannot post new topics in this forum
You cannot reply to topics in this forum
You cannot edit your posts in this forum
You cannot delete your posts in this forum
You cannot vote in polls in this forum
You cannot attach files in this forum
You cannot download files in this forum

!ATTENTION!
The site does not give electronic versions of products, and is engaged only in a collecting and cataloguing of the references sent and published at a forum by our readers. If you are the legal owner of any submitted material and do not wish that the reference to it was in our catalogue, contact us and we shall immediately remove her. Files for an exchange on tracker are given by users of a site, and the administration does not bear the responsibility for their maintenance. The request to not fill in the files protected by copyrights, and also files of the illegal maintenance!