Ивановский Торрент трекер
Яндекс.Погода
 

[Quote]
HUNTER

Сами с усами: Кошки-мышки / The Twisted Whiskers Show
Страна: США
Жанр: Мультфильм
Сезон (количество): 1
Серии (количество): 9
Продолжительность: 9 х ~ 00:11:00
Год выпуска: 2009
Перевод: Профессиональный (многоголосый закадровый)
Русские субтитры: нет
Режиссёр: Билл Копп / Bill Kopp
Описание: Нет ничего более забавного и увлекательного, чем наблюдать за повседневной жизнью глазами котят, собак и прочих домашних любимцев. Эти забавные маленькие пакостники часто попадают в смешные и неожиданные ситуации, которые быстро превращают их из отъявленных хулиганов в невинных обиженных зверушек и наоборот. Вам предстоит познакомиться с многочисленными представителями веселой звериной тусовки - начиная с Яупа, маленького застенчивого котенка с огромными голубыми глазами, и заканчивая мистером Мьюйзером, огромным домашним котом, любителя красивой жизни и мексиканских мыльных опер. "Сами с усами" - это искрометный фейерверк из ярких, уморительных гэгов и историй, которые никого не оставят равнодушным.
Содержание:
1. Волшебный обед
2. Взломщик
3. Гаспер вечен
4. Любовь зла
5. Проделки с холодильником
6. Послушание
7. Все познается в сравнении
8. Кошки-мышки
9. Братья по Космосу
Семпл: http://multi-up.com/378971
Все раздачи мультсериала
Качество: DVDRip
Формат: AVI
Видео: 704x384 (1.83:1), 25 fps, XviD build 46 ~1885 kbps avg, 0.28 bit/pixel
Аудио: 48 kHz, MPEG Layer 3, 2 ch, ~192.00 kbps avg
Субтитры: нет

Подробные технические данные

General
Complete name : D:\Sami.s.usami.koshki.mishki.vipusk.5.2009.XviD.DVDRip.Kinozal.TV\Bratia.po.kosmosu.2009.XviD.DVDRip.Kinozal.TV.avi
Format : AVI
Format/Info : Audio Video Interleave
File size : 165 MiB
Duration : 11mn 3s
Overall bit rate : 2 088 Kbps
Writing library : VirtualDub-MPEG2 build 23858/release
Video
ID : 0
Format : MPEG-4 Visual
Format profile : [email protected]
Format settings, BVOP : No
Format settings, QPel : No
Format settings, GMC : No warppoints
Format settings, Matrix : Default (H.263)
Codec ID : XVID
Codec ID/Hint : XviD
Duration : 11mn 3s
Bit rate : 1 886 Kbps
Width : 704 pixels
Height : 384 pixels
Display aspect ratio : 16:9
Frame rate : 25.000 fps
Resolution : 8 bits
Colorimetry : 4:2:0
Scan type : Progressive
Bits/(Pixel*Frame) : 0.279
Stream size : 149 MiB (90%)
Writing library : XviD 1.1.2 (UTC 2006-11-01)
Audio
ID : 1
Format : MPEG Audio
Format version : Version 1
Format profile : Layer 3
Mode : Joint stereo
Format_Settings_ModeExtension : MS Stereo
Codec ID : 55
Codec ID/Hint : MP3
Duration : 11mn 3s
Bit rate mode : Constant
Bit rate : 192 Kbps
Channel(s) : 2 channels
Sampling rate : 48.0 KHz
Video delay : 8ms
Stream size : 15.2 MiB (9%)
Alignment : Split accross interleaves
Interleave, duration : 40 ms (1.00 video frame)
Interleave, preload duration : 500 ms
Writing library : LAME3.98

Скриншоты



Display posts:    

Current time is: 05-Aug 16:33

All times are UTC ± 0


You cannot post new topics in this forum
You cannot reply to topics in this forum
You cannot edit your posts in this forum
You cannot delete your posts in this forum
You cannot vote in polls in this forum
You cannot attach files in this forum
You cannot download files in this forum

!ATTENTION!
The site does not give electronic versions of products, and is engaged only in a collecting and cataloguing of the references sent and published at a forum by our readers. If you are the legal owner of any submitted material and do not wish that the reference to it was in our catalogue, contact us and we shall immediately remove her. Files for an exchange on tracker are given by users of a site, and the administration does not bear the responsibility for their maintenance. The request to not fill in the files protected by copyrights, and also files of the illegal maintenance!