Ивановский Торрент трекер
Яндекс.Погода
 

[Quote]
HUNTER

САЛЮТ - 7- Страна: Россия
Жанр: драма, приключения, триллер
Год выпуска: 2017
Продолжительность: 01:58:32
Перевод: не требуется
Субтитры: нет
Оригинальная аудиодорожка: русский
Режиссер: Клим Шипенко
В ролях: Владимир Вдовиченков (Федоров Владимир Джанибеков), Павел Деревянко (Виктор Савиных), Александр Самойленко (Валерий Рюмин, руководитель полёта), Виталий Хаев, Оксана Фандера, Любовь Аксенова, Роман Перелыгин (Плахов), Полина Руденко (Оля, дочь космонавта Владимира Федорова), Александра Серебрякова (сотрудница ЦУП), Мария Миронова (Нина, жена Федорова), Наталья Кудряшова, Александр Ратников
Описание: Космическая станция «Салют-7», находящаяся на орбите в беспилотном режиме, неожиданно перестает отвечать на сигналы центра управления полетом. Принято решение об отправке на орбиту спасательной экспедиции. Космический экипаж должен найти «мертвую» станцию и впервые в мире провести стыковку с 20-тонной глыбой неуправляемого железа.
Космонавты понимают, что шансов вернуться на Землю у них немного. Но этот рискованный путь — единственно возможный. Они должны не только проникнуть на «Салют-7», но и оживить его. Смогут ли два человека предотвратить неминуемую катастрофу и спасти планету от падения станции? Спасательная экспедиция превращается в опасное испытание. На орбите разворачивается настоящий космический детектив. Фильм основан на реальных событиях: полет к станции «Салют-7» в 1985 году считается самым сложным полетом в истории космонавтики.- -Тип релиза: BDRip 720p (BD FRA)
Контейнер: MKV
Видео: [email protected], 1280x538 (2.40:1), 24.000 fps, ~4844 kbps avg
Аудио: 48 kHz, DTS, 3/2 (L,C,R,l,r) + LFE ch, ~1509 kbps avg-

MediaInfo | x264 log

Format : Matroska
Format version : Version 4 / Version 2
File size : 5.37 GiB
Duration : 1 h 58 min
Overall bit rate : 6 482 kb/s
Movie name : Салют-7 (2017) :: AFM ::
Encoded date : UTC 2018-02-04 03:44:05
Writing application : mkvmerge v8.3.0 ('Over the Horizon') 32bit
Writing library : libebml v1.3.1 + libmatroska v1.4.2
Cover : Yes
Attachments : cover.jpg
Video
ID : 1
Format : AVC
Format/Info : Advanced Video Codec
Format profile : [email protected]
Format settings, CABAC : Yes
Format settings, RefFrames : 11 frames
Codec ID : V_MPEG4/ISO/AVC
Duration : 1 h 58 min
Bit rate : 4 844 kb/s
Width : 1 280 pixels
Height : 538 pixels
Display aspect ratio : 2.40:1
Frame rate mode : Constant
Frame rate : 24.000 FPS
Color space : YUV
Chroma subsampling : 4:2:0
Bit depth : 8 bits
Scan type : Progressive
Bits/(Pixel*Frame) : 0.293
Stream size : 4.01 GiB (75%)
Title : BDRip by AFM
Writing library : x264 core 152 r2851+45 9658d1a 7mod [[email protected] X86_64]
Encoding settings : cabac=1 / ref=11 / deblock=1:-3:-3 / analyse=0x3:0x133 / me=umh / subme=10 / psy=1 / fade_compensate=0.00 / psy_rd=1.00:0.00 / mixed_ref=1 / me_range=32 / chroma_me=0 / trellis=2 / 8x8dct=1 / cqm=0 / deadzone=21,11 / fast_pskip=0 / chroma_qp_offset=-2 / threads=6 / lookahead_threads=1 / sliced_threads=0 / nr=0 / decimate=1 / interlaced=0 / bluray_compat=0 / constrained_intra=0 / fgo=0 / bframes=14 / b_pyramid=2 / b_adapt=2 / b_bias=0 / direct=1 / weightb=1 / open_gop=0 / weightp=2 / keyint=240 / keyint_min=23 / scenecut=40 / intra_refresh=0 / rc_lookahead=90 / rc=crf / mbtree=0 / crf=17.8000 / qcomp=0.65 / qpmin=0:0:0 / qpmax=69:69:69 / qpstep=4 / vbv_maxrate=50000 / vbv_bufsize=62500 / crf_max=0.0 / nal_hrd=none / filler=0 / ip_ratio=1.30 / pb_ratio=1.20 / aq=3:0.80 / aq-sensitivity=10.00 / aq-factor=1.00:1.00:1.00 / aq2=0 / aq3=0
Language : Russian
Default : Yes
Forced : No
Audio
ID : 2
Format : DTS
Format/Info : Digital Theater Systems
Mode : 16
Format settings, Endianness : Big
Codec ID : A_DTS
Duration : 1 h 58 min
Bit rate mode : Constant
Bit rate : 1 509 kb/s
Channel(s) : 6 channels
Channel positions : Front: L C R, Side: L R, LFE
Sampling rate : 48.0 kHz
Frame rate : 93.750 FPS (512 SPF)
Bit depth : 24 bits
Compression mode : Lossy
Stream size : 1.25 GiB (23%)
Title : DTS 5.1 ~1509 kbps
Language : Russian
Default : Yes
Forced : No
Menu
00:00:00.000 : ru:Глава 1
00:20:34.416 : ru:Глава 2
00:42:46.416 : ru:Глава 3
01:05:55.958 : ru:Глава 4
01:22:23.625 : ru:Глава 5
01:38:37.458 : ru:Глава 6

x264

x264 [info]: frame I:1241 Avg QP:16.01 size: 97965
x264 [info]: frame P:32244 Avg QP:17.41 size: 49768
x264 [info]: frame B:137211 Avg QP:18.91 size: 19624
x264 [info]: consecutive B-frames: 1.2% 1.1% 4.4% 11.2% 10.2% 63.6% 3.4% 0.6% 1.5% 1.0% 0.5% 0.3% 0.3% 0.2% 0.5%
x264 [info]: mb I I16..4: 5.6% 77.9% 16.5%
x264 [info]: mb P I16..4: 1.5% 16.9% 1.5% P16..4: 31.7% 25.8% 17.4% 1.0% 0.3% skip: 4.1%
x264 [info]: mb B I16..4: 0.1% 1.5% 0.1% B16..8: 38.5% 15.3% 5.6% direct:10.7% skip:28.2% L0:43.8% L1:40.3% BI:15.8%
x264 [info]: 8x8 transform intra:85.2% inter:56.2%
x264 [info]: coded y,uvDC,uvAC intra: 90.5% 83.5% 64.2% inter: 39.4% 29.0% 4.6%
x264 [info]: i16 v,h,dc,p: 61% 14% 12% 12%
x264 [info]: i8 v,h,dc,ddl,ddr,vr,hd,vl,hu: 8% 8% 13% 10% 13% 12% 12% 11% 13%
x264 [info]: i4 v,h,dc,ddl,ddr,vr,hd,vl,hu: 9% 8% 5% 10% 15% 14% 14% 11% 14%
x264 [info]: i8c dc,h,v,p: 49% 22% 16% 13%
x264 [info]: Weighted P-Frames: Y:97.1% UV:3.2%
x264 [info]: ref P L0: 46.1% 12.6% 17.0% 6.1% 5.2% 3.4% 3.3% 1.8% 1.7% 1.3% 1.4% 0.1% 0.0%
x264 [info]: ref B L0: 77.7% 9.4% 4.6% 2.5% 1.7% 1.4% 1.2% 0.8% 0.5% 0.2%
x264 [info]: ref B L1: 95.9% 4.1%
x264 [info]: kb/s:4970.47

Скриншоты

FRA vs RUS

+ разная продолжительность - в данном релизе содержатся сцены, которых не было в русском издании.


Display posts:    

Current time is: 14-Jul 09:44

All times are UTC ± 0


You cannot post new topics in this forum
You cannot reply to topics in this forum
You cannot edit your posts in this forum
You cannot delete your posts in this forum
You cannot vote in polls in this forum
You cannot attach files in this forum
You cannot download files in this forum

!ATTENTION!
The site does not give electronic versions of products, and is engaged only in a collecting and cataloguing of the references sent and published at a forum by our readers. If you are the legal owner of any submitted material and do not wish that the reference to it was in our catalogue, contact us and we shall immediately remove her. Files for an exchange on tracker are given by users of a site, and the administration does not bear the responsibility for their maintenance. The request to not fill in the files protected by copyrights, and also files of the illegal maintenance!