Ивановский Торрент трекер
Яндекс.Погода
DL-List and Torrent activity
None
 
     
 
 

[Quote]
HUNTER

-Саботаж / Sabotage«Неудержимые снова в деле» Страна: США
Студия: Albert S. Ruddy Productions, Brentwood Productions, Crave Films, DEA Productions, Open Road Films (II), QED International, Roth Films
Жанр: Боевик, триллер, драма, криминал
Год выпуска: 2014
Продолжительность: 01:49:40-Перевод 1: Профессиональный (полное дублирование)
Перевод 2: Авторский (одноголосый, закадровый), Л. Володарский
Перевод 3: Авторский (одноголосый, закадровый), В. Горчаков
Перевод 4: Одноголосый (закадровый), Д. Есарев
Перевод 5: Одноголосый (закадровый), Doctor_Joker
Оригинальная аудиодорожка: английский
Cубтитры: русские, английские
Режиссер: Дэвид Эйр / David Ayer
В ролях: Арнольд Шварценеггер, Сэм Уортингтон, Оливия Уильямс, Терренс Ховард, Джо Манганьелло, Джош Холлоуэй, Мирей Инос, Мартин Донован, Макс Мартини, Кевин Вэнс
Описание: История начинается с операции элитного подразделения из управления по борьбе с наркотиками, нагрянувшего на явочную квартиру наркокартеля. Команда решает скрыть от начальства, что в результате налёта они обогатились на миллионы долларов, но вскоре хранить тайну становится всё сложнее: кто-то по одному убирает всех участвовавших в операции.-
Сэмпл: скачать-Релиз от -
Автор рипа: Elheym
Качество: BDRip 720p (источник: Talian70 / Blu-ray Remux / 1080p)
Контейнер: MKV
Видео: 1280x692 (1.85:1), 23.976 fps, MPEG-4 AVC, ~7920 kbps avg, 0.373 bit/pixel
Аудио #1: Русский: DTS, 5.1, 48 kHz, ~1509 Кбит/с | Профессиональный (полное дублирование) |
Аудио #2: Русский: DTS, 5.1, 48 kHz, ~1509 Кбит/с | Авторский (одноголосый, закадровый), Володарский |
Аудио #3: Русский: DTS, 5.1, 48 kHz, ~1509 Кбит/с | Авторский (одноголосый, закадровый), Горчаков |
Аудио #4: Русский: DTS, 5.1, 48 kHz, ~1509 Кбит/с | Одноголосый (закадровый), Есарев |
Аудио #5: Русский: DTS, 5.1, 48 kHz, ~1509 Кбит/с | Одноголосый (закадровый), Doctor_Joker |
Аудио #6: Английский: DTS, 5.1, 48 kHz, ~1509 Кбит/с | Оригинал |
Субтитры: Русские (полные: Notabenoid, Матвеев), Английские (полные)
Главы: Присутствуют, сохранены оригинальные
Размер: 13.0 GB

MediaInfo

Уникальный идентификатор : 242208836819887255161750360103066283658 (0xB637B9A4429EA9D1AAA2640ADB282E8A)
Полное имя : Sabotage.2014.720p.BluRay.5xRus.Eng.-HQCLUB.mkv
Формат : Matroska
Версия формата : Version 2
Размер файла : 13,0 Гбайт
Продолжительность : 1 ч. 49 м.
Общий поток : 17,0 Мбит/сек
Дата кодирования : UTC 2014-08-19 05:40:29
Программа кодирования : mkvmerge v5.2.0 ('I can't explain') built on Dec 18 2011 18:12:03
Библиотека кодирования : libebml v1.2.3 + libmatroska v1.3.0
Видео
Идентификатор : 1
Формат : AVC
Формат/Информация : Advanced Video Codec
Профиль формата : High@L4.1
Параметр CABAC формата : Да
Параметр ReFrames формата : 7 кадров
Идентификатор кодека : V_MPEG4/ISO/AVC
Продолжительность : 1 ч. 49 м.
Битрейт : 7920 Кбит/сек
Ширина : 1280 пикселей
Высота : 692 пикселя
Соотношение сторон : 1,85:1
Режим частоты кадров : Постоянный
Частота кадров : 23,976 кадра/сек
Цветовое пространство : YUV
Субдискретизация насыщенности : 4:2:0
Битовая глубина : 8 бит
Тип развёртки : Прогрессивная
Бит/(Пиксели*Кадры) : 0.373
Размер потока : 5,81 Гбайт (45%)
Заголовок : Саботаж / Sabotage (2014) BDRip 720p by HQCLUB [Elheym]
Библиотека кодирования : x264 core 142 r2453 ea0ca51
Настройки программы : cabac=1 / ref=8 / deblock=1:-3:-2 / analyse=0x3:0x113 / me=umh / subme=11 / psy=1 / psy_rd=1.04:0.00 / mixed_ref=1 / me_range=32 / chroma_me=1 / trellis=2 / 8x8dct=1 / cqm=0 / deadzone=21,11 / fast_pskip=1 / chroma_qp_offset=-4 / threads=6 / lookahead_threads=1 / sliced_threads=0 / nr=0 / decimate=1 / interlaced=0 / bluray_compat=0 / constrained_intra=0 / bframes=11 / b_pyramid=1 / b_adapt=2 / b_bias=0 / direct=3 / weightb=1 / open_gop=0 / weightp=2 / keyint=240 / keyint_min=23 / scenecut=40 / intra_refresh=0 / rc_lookahead=40 / rc=2pass / mbtree=0 / bitrate=7920 / ratetol=1.0 / qcomp=0.60 / qpmin=10 / qpmax=69 / qpstep=4 / cplxblur=20.0 / qblur=0.5 / vbv_maxrate=50000 / vbv_bufsize=62500 / nal_hrd=none / filler=0 / ip_ratio=1.40 / pb_ratio=1.30 / aq=1:0.90
Язык : English
Default : Да
Forced : Нет
Аудио #1
Идентификатор : 2
Формат : DTS
Формат/Информация : Digital Theater Systems
Режим : 16
Параметр Endianness формата : Big
Идентификатор кодека : A_DTS
Продолжительность : 1 ч. 49 м.
Вид битрейта : Постоянный
Битрейт : 1509 Кбит/сек
Каналы : 6 каналов
Расположение каналов : Front: L C R, Side: L R, LFE
Частота : 48,0 КГц
Битовая глубина : 16 бит
Метод сжатия : С потерями
Размер потока : 1,16 Гбайт (9%)
Заголовок : DTS 5.1 @ 1509 kbps - Dub, Blu-Ray RUS
Язык : Russian
Default : Нет
Forced : Нет
Аудио #2
Идентификатор : 3
Формат : DTS
Формат/Информация : Digital Theater Systems
Режим : 16
Параметр Endianness формата : Big
Идентификатор кодека : A_DTS
Продолжительность : 1 ч. 49 м.
Вид битрейта : Постоянный
Битрейт : 1509 Кбит/сек
Каналы : 6 каналов
Расположение каналов : Front: L C R, Side: L R, LFE
Частота : 48,0 КГц
Битовая глубина : 24 бит
Метод сжатия : С потерями
Размер потока : 1,16 Гбайт (9%)
Заголовок : DTS 5.1 @ 1509 kbps - AVO, Volodarskij
Язык : Russian
Default : Нет
Forced : Нет
Аудио #3
Идентификатор : 4
Формат : DTS
Формат/Информация : Digital Theater Systems
Режим : 16
Параметр Endianness формата : Big
Идентификатор кодека : A_DTS
Продолжительность : 1 ч. 49 м.
Вид битрейта : Постоянный
Битрейт : 1509 Кбит/сек
Каналы : 6 каналов
Расположение каналов : Front: L C R, Side: L R, LFE
Частота : 48,0 КГц
Битовая глубина : 24 бит
Метод сжатия : С потерями
Размер потока : 1,16 Гбайт (9%)
Заголовок : DTS 5.1 @ 1509 kbps - AVO, Gorchakov
Язык : Russian
Default : Нет
Forced : Нет
Аудио #4
Идентификатор : 5
Формат : DTS
Формат/Информация : Digital Theater Systems
Режим : 16
Параметр Endianness формата : Big
Идентификатор кодека : A_DTS
Продолжительность : 1 ч. 49 м.
Вид битрейта : Постоянный
Битрейт : 1509 Кбит/сек
Каналы : 6 каналов
Расположение каналов : Front: L C R, Side: L R, LFE
Частота : 48,0 КГц
Битовая глубина : 24 бит
Метод сжатия : С потерями
Размер потока : 1,16 Гбайт (9%)
Заголовок : DTS 5.1 @ 1509 kbps - VO, Esarev
Язык : Russian
Default : Нет
Forced : Нет
Аудио #5
Идентификатор : 6
Формат : DTS
Формат/Информация : Digital Theater Systems
Режим : 16
Параметр Endianness формата : Big
Идентификатор кодека : A_DTS
Продолжительность : 1 ч. 49 м.
Вид битрейта : Постоянный
Битрейт : 1509 Кбит/сек
Каналы : 6 каналов
Расположение каналов : Front: L C R, Side: L R, LFE
Частота : 48,0 КГц
Битовая глубина : 24 бит
Метод сжатия : С потерями
Размер потока : 1,16 Гбайт (9%)
Заголовок : DTS 5.1 @ 1509 kbps - VO, Matveev
Язык : Russian
Default : Нет
Forced : Нет
Аудио #6
Идентификатор : 7
Формат : DTS
Формат/Информация : Digital Theater Systems
Режим : 16
Параметр Endianness формата : Big
Идентификатор кодека : A_DTS
Продолжительность : 1 ч. 49 м.
Вид битрейта : Постоянный
Битрейт : 1509 Кбит/сек
Каналы : 6 каналов
Расположение каналов : Front: L C R, Side: L R, LFE
Частота : 48,0 КГц
Битовая глубина : 24 бит
Метод сжатия : С потерями
Размер потока : 1,16 Гбайт (9%)
Заголовок : DTS 5.1 @ 1509 kbps - Original
Язык : English
Default : Нет
Forced : Нет
Текст #1
Идентификатор : 8
Формат : UTF-8
Идентификатор кодека : S_TEXT/UTF8
Идентификатор кодека/Информация : UTF-8 Plain Text
Заголовок : Full, Notabenoid
Язык : Russian
Default : Нет
Forced : Нет
Текст #2
Идентификатор : 9
Формат : UTF-8
Идентификатор кодека : S_TEXT/UTF8
Идентификатор кодека/Информация : UTF-8 Plain Text
Заголовок : Full, Matveev
Язык : Russian
Default : Нет
Forced : Нет
Текст #3
Идентификатор : 10
Формат : UTF-8
Идентификатор кодека : S_TEXT/UTF8
Идентификатор кодека/Информация : UTF-8 Plain Text
Заголовок : Full
Язык : English
Default : Нет
Forced : Нет
Меню
00:00:00.000 : :Chapter 01
00:09:58.556 : :Chapter 02
00:13:13.125 : :Chapter 03
00:19:44.308 : :Chapter 04
00:25:16.932 : :Chapter 05
00:30:09.599 : :Chapter 06
00:34:21.976 : :Chapter 07
00:37:33.376 : :Chapter 08
00:43:00.744 : :Chapter 09
00:48:32.117 : :Chapter 10
00:53:13.106 : :Chapter 11
00:57:38.621 : :Chapter 12
01:03:43.778 : :Chapter 13
01:07:59.450 : :Chapter 14
01:14:38.557 : :Chapter 15
01:18:42.551 : :Chapter 16
01:22:41.164 : :Chapter 17
01:28:49.490 : :Chapter 18
01:35:39.316 : :Chapter 19
01:42:47.828 : :Chapter 20
01:49:39.990 : :Chapter 21

x264 log

x264 [info]: frame I:1189 Avg QP:14.80 size:148353
x264 [info]: frame P:46849 Avg QP:16.65 size: 65452
x264 [info]: frame B:109730 Avg QP:17.62 size: 29810
x264 [info]: consecutive B-frames: 8.8% 7.2% 15.1% 16.4% 15.3% 29.7% 3.8% 0.7% 1.0% 0.7% 0.5% 0.8%
x264 [info]: ref P L0: 59.7% 11.3% 13.1% 5.8% 3.9% 2.9% 2.6% 0.6% 0.0%
x264 [info]: ref B L0: 81.9% 9.4% 4.4% 2.1% 1.5% 0.7%
x264 [info]: ref B L1: 93.0% 7.0%

Скриншоты



Display posts:    

Current time is: 20-Nov 09:19

All times are UTC ± 0


You cannot post new topics in this forum
You cannot reply to topics in this forum
You cannot edit your posts in this forum
You cannot delete your posts in this forum
You cannot vote in polls in this forum
You cannot attach files in this forum
You cannot download files in this forum

!ATTENTION!
The site does not give electronic versions of products, and is engaged only in a collecting and cataloguing of the references sent and published at a forum by our readers. If you are the legal owner of any submitted material and do not wish that the reference to it was in our catalogue, contact us and we shall immediately remove her. Files for an exchange on tracker are given by users of a site, and the administration does not bear the responsibility for their maintenance. The request to not fill in the files protected by copyrights, and also files of the illegal maintenance!