Важное объявление!
У Нас Все раздачи мультитрекерные, при нуле пиров в релизах, можете смело вставать на закачку!
 
Автор Сообщение

HUNTER

Стаж:
4 года 7 месяцев
Сообщений:
61428

Репутация: 101

[+] [-]
Вне форума [Профиль] [ЛС]

Ryan Schlutz's Miracles Without Moves
Страна: UK
Тематика: Карточные фокусы
Тип раздаваемого материала: Видеоурок
Продолжительность: 01:25:14
Язык: Английский
Перевод: Не требуется
Качество: DVDRip
Формат: AVI
Видео кодек: MPEG2
Аудио кодек: AAC
Видео: English, 1452 Кбит/сек, 720*404 (16:9), в 29,970 кадров/сек, MPEG-4 Visual (Simple@L1)
Аудио: English, 126 Кбит/сек 44,1 КГц, 2 канала, AAC (LC)
Описание: Несколько отличных фокусов с картами, требующие минимальную ловкость рук. Большинство из них не нуждаются в предварительной подготовке.
Превью: https://www.youtube.com/watch?v=tgMYgmhuKvY

MediaInfo

Общее
Формат : MPEG-4
Профиль формата : Base Media / Version 2
Идентификатор кодека : mp42
Размер файла : 964 Мбайт
Продолжительность : 1 ч. 25 м.
Режим общего битрейта : Переменный
Общий поток : 1582 Кбит/сек
Дата кодирования : UTC 2013-08-18 06:35:48
Дата пометки : UTC 2013-08-18 06:37:47
Программа кодирования : mp4creator 1.6.1d
Видео
Идентификатор : 1
Формат : MPEG-4 Visual
Профиль формата : Simple@L1
Параметр BVOP формата : Нет
Параметр QPel формата : Нет
Параметр GMC формата : Без точки перехода
Параметр матрицы формата : Default (H.263)
Идентификатор кодека : 20
Продолжительность : 1 ч. 25 м.
Вид битрейта : Переменный
Битрейт : 1454 Кбит/сек
Максимальный битрейт : 5501 Кбит/сек
Ширина : 720 пикселей
Высота : 404 пикселя
Соотношение сторон : 16:9
Соотношение сторон в оригинале : 16:9
Режим частоты кадров : Переменный
Частота кадров : 29,970 кадров/сек
Минимальная частота кадров : 29,960 кадров/сек
Максимальная частота кадров : 29,970 кадров/сек
Цветовое пространство : YUV
Субдискретизация насыщенности : 4:2:0
Битовая глубина : 8 бит
Тип развёртки : Прогрессивная
Метод сжатия : С потерями
Бит/(Пиксели*Кадры) : 0.167
Размер потока : 886 Мбайт (92%)
Язык : English
Дата кодирования : UTC 2013-08-18 06:35:48
Дата пометки : UTC 2013-08-18 06:37:43
Аудио
Идентификатор : 2
Формат : AAC
Формат/Информация : Advanced Audio Codec
Профиль формата : LC
Идентификатор кодека : 40
Продолжительность : 1 ч. 25 м.
Продолжительность оригинала : 1 ч. 25 м.
Вид битрейта : Переменный
Битрейт : 126 Кбит/сек
Максимальный битрейт : 208 Кбит/сек
Каналы : 2 канала
Расположение каналов : Front: L R
Частота : 44,1 КГц
Метод сжатия : С потерями
Размер потока : 76,5 Мбайт (8%)
Размер потока оригинала : 76,6 Мбайт (8%)
Язык : English
Дата кодирования : UTC 2013-08-18 06:37:43
Дата пометки : UTC 2013-08-18 06:37:47

Скриншоты


_________________
Показать сообщения:    

Текущее время: Сегодня 16:52

Часовой пояс: GMT



Вы не можете начинать темы
Вы не можете отвечать на сообщения
Вы не можете редактировать свои сообщения
Вы не можете удалять свои сообщения
Вы не можете голосовать в опросах
Вы не можете прикреплять файлы к сообщениям
Вы не можете скачивать файлы
Наши партнеры: интернет магазин Ивановского трикотажа textilla.ru