Ивановский Торрент трекер
Яндекс.Погода
DL-List and Torrent activity
None
 
     
 
 

[Quote]
димитри37

Русь. Идентификация Рюрика
Год выпуска: 2012
Страна: Россия
Жанр: Документальный, познавательный
Продолжительность: 00:38:26
Перевод: Не требуется
Режиссер: Юрий Гучкин
Описание: В 2012 году исполняется 1150 лет со времени события, которое в отечественной историографии получило название "призвание варягов". Именно 862 год считается датой зарождения российской государственности. До сих пор не утихают споры кем был по национальности Рюрик. Точку в прениях решили поставить исследователи ДНК
Запись со спутника Intelsat 15
Качество: DVB
Формат: TS
Видео: MPEG2, 1824 Kbps, 720х576 (4:3), 25 fps, Bits/(Pixel*Frame): 0.221
Аудио: MP2, 160 Kbps, 2 ch, 48.0 KHz

MediaInfo

E:\Документалистика\Русь. Идентификация Рюрика.ts
General #16
ID : 16 (0x10)
Complete name : E:\Документалистика\Русь. Идентификация Рюрика.ts
Format : MPEG-TS
File size : 619 MiB
Duration : 41mn 26s
Overall bit rate mode : Variable
Overall bit rate : 2 089 Kbps
Video #1712
ID : 1712 (0x6B0)
Menu ID : 3 (0x3)
Format : MPEG Video
Format version : Version 2
Format profile : Main@Main
Format settings, BVOP : Yes
Format settings, Matrix : Custom
Codec ID : 2
Duration : 41mn 26s
Bit rate mode : Variable
Bit rate : 1 824 Kbps
Maximum bit rate : 15.0 Mbps
Width : 720 pixels
Height : 576 pixels
Display aspect ratio : 4:3
Frame rate : 25.000 fps
Standard : PAL
Color space : YUV
Chroma subsampling : 4:2:0
Bit depth : 8 bits
Scan type : Interlaced
Scan order : Top Field First
Compression mode : Lossy
Bits/(Pixel*Frame) : 0.176
Stream size : 541 MiB (87%)
Writing library : (c) 1998-2011 Womble Multimedia, Inc. / MPEG Video Wizard DVD 5.0.1.100 (03/2011) / May 27 2011
Audio #2712
ID : 2712 (0xA98)
Menu ID : 3 (0x3)
Format : MPEG Audio
Format version : Version 1
Format profile : Layer 2
Codec ID : 3
Duration : 41mn 26s
Bit rate mode : Constant
Bit rate : 160 Kbps
Channel(s) : 2 channels
Sampling rate : 48.0 KHz
Compression mode : Lossy
Delay relative to video : -40ms
Stream size : 47.4 MiB (8%)

Скриншоты



Display posts:    

Current time is: 27-Jan 04:06

All times are UTC ± 0


You cannot post new topics in this forum
You cannot reply to topics in this forum
You cannot edit your posts in this forum
You cannot delete your posts in this forum
You cannot vote in polls in this forum
You cannot attach files in this forum
You cannot download files in this forum

!ATTENTION!
The site does not give electronic versions of products, and is engaged only in a collecting and cataloguing of the references sent and published at a forum by our readers. If you are the legal owner of any submitted material and do not wish that the reference to it was in our catalogue, contact us and we shall immediately remove her. Files for an exchange on tracker are given by users of a site, and the administration does not bear the responsibility for their maintenance. The request to not fill in the files protected by copyrights, and also files of the illegal maintenance!