Важное объявление!
У Нас Все раздачи мультитрекерные, при нуле пиров в релизах, можете смело вставать на закачку!
 
Автор Сообщение

HUNTER

Стаж:
4 года 10 месяцев
Сообщений:
65531

Репутация: 101

[+] [-]
Вне форума [Профиль] [ЛС]

Real Social Dynamics: Tyler – Hotseat At Home / RSD Tyler – Hotseat At Home [Complete + Bonuses]
Продолжительность: ~15:00:00
Перевод: Отсутствует
Язык: English
Описание: We have spent the past decade traveling to every corner of the globe, recording the most insane infield footage to ever exist, and helping thousands of guys get insane results with women that they could only DREAM of before.
We have gone from city to city, and country to country teaching the Hot Seat, and it has become our most raved-about program to date.
Up until now – The The Hot Seat has worked like this:
We take the most informative, eye-opening full-length clips of pickups, and we break them down, step-by-step.
Then we would take this amazing, beautifully-shot video with crystal-clear audio, we would break it apart. analyze it. and pull out the core principles and techniques.
Then we follow it up with these crazy, crazy exercises that reinforce the core concepts you learn in the videos.
We have spent YEARS to build the PERFECT PROGRAM…
We have fine-tuned The Hot Seat to be the most high-impact, life-changing program that exists anywhere in the world – there is nothing else like it – period.
The Hot Seat is an event that has been taken by 10’s of THOUSANDS of people.
But the thing that’s frustrated us over the years, is that we’ve never really succeeded in creating that same experience from home. UNTIL NOW.
The thing was – because The Hot Seat is a live event. not everyone is able to attend, we get messages from guys all over the world:
“I can’t make it. I live a million miles away!”
“Why can’t you come to my city / country more often?” and “I WISH I could make it. it would be so awesome. what do I do?”
We get hundreds and hundreds of emails – BEGGING us to bring this training to them.
The more messages we get. the more we realize that there are THOUSANDS of guys who NEED this, RIGHT NOW, but can’t get it.
Over time.
Доп. информация:

TRANSFORM (?)

COST: $397
Sale Page

MediaInfo

RSD Tyler – Hotseat At Home\02. Week 2 - Mission 1.mp4
Format : MPEG-4
Format profile : Base Media / Version 2
Codec ID : mp42
File size : 546 MiB
Duration : 16mn 2s
Overall bit rate mode : Variable
Overall bit rate : 4 760 Kbps
Encoded date : UTC 2016-02-23 01:46:16
Tagged date : UTC 2016-02-23 01:46:16
Video
ID : 1
Format : AVC
Format/Info : Advanced Video Codec
Format profile : High@L4.0
Format settings, CABAC : Yes
Format settings, ReFrames : 4 frames
Codec ID : avc1
Codec ID/Info : Advanced Video Coding
Duration : 16mn 2s
Bit rate : 4 500 Kbps
Width : 1 920 pixels
Height : 1 080 pixels
Display aspect ratio : 16:9
Frame rate mode : Constant
Frame rate : 23.976 fps
Color space : YUV
Chroma subsampling : 4:2:0
Bit depth : 8 bits
Scan type : Progressive
Bits/(Pixel*Frame) : 0.091
Stream size : 516 MiB (95%)
Writing library : x264 core 148 r11 a01e339
Encoding settings : cabac=1 / ref=4 / deblock=1:0:0 / analyse=0x3:0x113 / me=umh / subme=8 / psy=1 / psy_rd=1.00:0.00 / mixed_ref=1 / me_range=16 / chroma_me=1 / trellis=1 / 8x8dct=1 / cqm=0 / deadzone=21,11 / fast_pskip=1 / chroma_qp_offset=-2 / threads=34 / lookahead_threads=5 / sliced_threads=0 / nr=0 / decimate=1 / interlaced=0 / bluray_compat=0 / stitchable=1 / constrained_intra=0 / bframes=3 / b_pyramid=2 / b_adapt=2 / b_bias=0 / direct=3 / weightb=1 / open_gop=0 / weightp=2 / keyint=infinite / keyint_min=23 / scenecut=40 / intra_refresh=0 / rc_lookahead=50 / rc=2pass / mbtree=1 / bitrate=4500 / ratetol=1.0 / qcomp=0.60 / qpmin=5 / qpmax=69 / qpstep=4 / cplxblur=20.0 / qblur=0.5 / vbv_maxrate=4950 / vbv_bufsize=13500 / nal_hrd=none / filler=0 / ip_ratio=1.40 / aq=1:1.00
Encoded date : UTC 2016-02-23 01:46:16
Tagged date : UTC 2016-02-23 01:46:16
Color primaries : BT.709
Transfer characteristics : BT.709
Matrix coefficients : BT.709
Audio
ID : 2
Format : AAC
Format/Info : Advanced Audio Codec
Format profile : LC
Codec ID : 40
Duration : 16mn 2s
Bit rate mode : Variable
Bit rate : 256 Kbps
Channel count : 2 channels
Channel positions : Front: L R
Sampling rate : 48.0 KHz
Compression mode : Lossy
Stream size : 29.4 MiB (5%)
Encoded date : UTC 2016-02-23 01:46:16
Tagged date : UTC 2016-02-23 01:46:16
Качество видео: HDRip
Формат видео: MP4
Видео: AVC, 1080p, 4 760 Kbps, 23.976 fps
Аудио: AAC, 256 Kbps, 2ch

Скриншоты


_________________
Показать сообщения:    

Текущее время: Сегодня 08:16

Часовой пояс: GMT



Вы не можете начинать темы
Вы не можете отвечать на сообщения
Вы не можете редактировать свои сообщения
Вы не можете удалять свои сообщения
Вы не можете голосовать в опросах
Вы не можете прикреплять файлы к сообщениям
Вы не можете скачивать файлы