Ивановский Торрент трекер
Яндекс.Погода
DL-List and Torrent activity
Size:  5.53 GB   |    Registered:  4 years 7 months   |    Completed:  0 times
DL-List: None

Seeder not seen: Never

 
     
 
 
 

[Quote]
HUNTER

Рождественская путаница / A Very Merry Mix-Up
Страна: Канада, США
Жанр: мелодрама
Год выпуска: 2013
Продолжительность: 01:27:58
Перевод: Профессиональный (многоголосый закадровый)
Cубтитры: нет
Режиссер: Джонатан Райт / Jonathan Wright
В ролях: Алисия Уитт, Марк Виб, Лоуренс Дэйн, Скотт Гибсон, Сьюзэн Хоган, Ричард Фицпатрик
Описание: Энергичный молодой бизнесмен Уилл приглашает свою невесту встретить рождество у его родителей. Красотка Элис, которой предстоит увидеть своих будущих свёкров впервые, изрядно нервничает перед поездкой. Поводов для беспокойства со временем только прибавляется: самолет Элис прилетает раньше, её багаж теряется в аэропорте, а телефон выходит из строя.
Сэмпл: http://rusfolder.com/43302603
Кинопоиск: http://www.kinopoisk.ru/film/793922/

Тип релиза: HDTV 1080i
Контейнер: TS
Видео: AVC/H.264, 1920x1080 (16:9), 8366 Кбит/сек, 25.000 fps
Аудио: русский, MP2, 2ch, 48,0 КГц, 192 Кбит/сек

MediaInfo

Общее
Идентификатор : 1 (0x1)
Полное имя : D:\Рождественская путаница.ts
Формат : MPEG-TS
Размер файла : 5,53 Гбайт
Продолжительность : 1 ч. 27 м.
Режим общего битрейта : Переменный
Общий поток : 9005 Кбит/сек
Максимальный общий битрейт : 35,5 Мбит/сек
Видео
Идентификатор : 4113 (0x1011)
Идентификатор меню : 1 (0x1)
Формат : AVC
Формат/Информация : Advanced Video Codec
Профиль формата : Main@L4.0
Параметр CABAC формата : Да
Параметр ReFrames формата : 3 кадра
Идентификатор кодека : 27
Продолжительность : 1 ч. 27 м.
Вид битрейта : Переменный
Битрейт : 8366 Кбит/сек
Максимальный битрейт : 40,0 Мбит/сек
Ширина : 1920 пикселей
Высота : 1080 пикселей
Соотношение сторон : 16:9
Частота кадров : 25,000 кадров/сек
Стандарт вещания : Component
Цветовое пространство : YUV
Субдискретизация насыщенности : 4:2:0
Битовая глубина : 8 бит
Тип развёртки : Чересстрочная
Порядок развёртки : Верхнее поле первое
Бит/(Пиксели*Кадры) : 0.161
Размер потока : 5,14 Гбайт (93%)
Основные цвета : BT.709
Характеристики трансфера : BT.709
Коэффициенты матрицы : BT.709
colour_range : Limited
Аудио
Идентификатор : 4352 (0x1100)
Идентификатор меню : 1 (0x1)
Формат : MPEG Audio
Версия формата : Version 1
Профиль формата : Layer 2
Идентификатор кодека : 4
Продолжительность : 1 ч. 27 м.
Вид битрейта : Постоянный
Битрейт : 192 Кбит/сек
Каналы : 2 канала
Частота : 48,0 КГц
Метод сжатия : С потерями
Размер потока : 121 Мбайт (2%)
Язык : Russian

Скриншот с названием фильма

Скриншоты

[iv-torrents.ru].t42493.torrent
Torrent: Registered [ 2015-03-27 21:28 ] · 78AC4613FB22C8AA361B65BE0C282169FBFEF471

Download .torrent

Download

28 KB

Status: checked
Completed: 0 times
Size: 5.53 GB
terms.php


Quick Reply

Name:

               
       
     
Heads necessary to send messages to enable JavaScript
Display posts:    

Current time is: 12-Nov 16:49

All times are UTC ± 0


You can post new topics in this forum
You can reply to topics in this forum
You cannot edit your posts in this forum
You cannot delete your posts in this forum
You cannot vote in polls in this forum
You cannot attach files in this forum
You can download files in this forum

!ATTENTION!
The site does not give electronic versions of products, and is engaged only in a collecting and cataloguing of the references sent and published at a forum by our readers. If you are the legal owner of any submitted material and do not wish that the reference to it was in our catalogue, contact us and we shall immediately remove her. Files for an exchange on tracker are given by users of a site, and the administration does not bear the responsibility for their maintenance. The request to not fill in the files protected by copyrights, and also files of the illegal maintenance!