Ивановский Торрент трекер
Яндекс.Погода
DL-List and Torrent activity
Size:  11.45 GB   |    Registered:  10 months 19 days   |    Completed:  2 times
DL-List: None

Seeder not seen: Never

 
     
 
 
 

[Quote]
HUNTER

РоузвудRosewood- Год выпуска: 1997
Страна: США
Студия: Warner Bros. Pictures
Жанр: боевик, драма, история-Продолжительность: 02:21:52
Перевод: Профессиональный (многоголосый закадровый) Премьер видео
Субтитры: английские (SDH)
Оригинальная аудиодорожка: английская-Режиссёр: Джон Синглтон / John Singleton
В ролях: Джон Войт, Винг Рэймс, Дон Чидл, Брюс МакГилл, Лорен Дин, Эстер Ролли, Элиз Нил, Роберт Патрик, Майкл Рукер, Кэтрин Келлнер, Акошуа Бусиа, Пол Бенджамин, Кевин Джексон, Марк Бун Джуниор, Мьюз Уотсон, Баджа Джола, Кэтрин Мейсл, Джеймс Вулветт, Бриджид Култер, Ванесса Баден, Бретт Райс и др.-Описание: 1-ое января 1923 года оказался роковым днем для темнокожих жителей патриархального городка с милым названием Роузвуд — их надежды и планы на новый год рухнули в одночасье. За несколько ночей банда белых головорезов сровняли с землей городишко, а его жители пали жертвой гнусной клеветы.
Горстке горожан удалось укрыться на болотах — теперь их спасение целиком и полностью зависит от двух одиночек — ветерана Первой Мировой и владельца небольшого магазина, которые решили объединить усилия в борьбе с расовыми предрассудками и слепой яростью.-КиноПоиск | IMDb | Sample-Качество: WEB-DL 1080p (QOQ)
Формат: MKV
Видео: x264, 1920x1080 (16:9), 23.976 fps, ~10.9 Mbps avg, 0.220 bit/pixel
Аудио #1: Russian 48.0 KHz, AC3, 2/0 (Front: L R) ch, ~192.00 kbps avg |Премьер|
Аудио #2: English 48.0 KHz, EAC3, 2/0 (Front: L R) ch, ~224.00 kbps avg |Original|
Формат субтитров: softsub (SRT)-

Релиз

Сборка и синхронизация звука - whip93.
За дорожку благодарю edich2 и denis_mgn_1987.

MediaInfo

General
Unique ID : 121757756062661566302848408972404305108 (0x5B99B0DAA4F283747C090E18B321ACD4)
Complete name : F:\Rosewood.1997.1080p.WEB-DL.DD2.0.x264.-whip93.mkv
Format : Matroska
Format version : Version 4 / Version 2
File size : 11.5 GiB
Duration : 2h 21mn
Overall bit rate mode : Variable
Overall bit rate : 11.6 Mbps
Movie name : Роузвуд | Rosewood (1997) - Release by whip93
Encoded date : UTC 2018-01-15 16:55:24
Writing application : mkvmerge v19.0.0 ('Brave Captain') 64-bit
Writing library : libebml v1.3.5 + libmatroska v1.4.8
DURATION : 02:21:52.256000000
NUMBER_OF_FRAMES : 266008
NUMBER_OF_BYTES : 204294144
_STATISTICS_WRITING_APP : mkvmerge v19.0.0 ('Brave Captain') 64-bit
_STATISTICS_WRITING_DATE_UT : 2018-01-15 16:55:24
_STATISTICS_TAGS : BPS DURATION NUMBER_OF_FRAMES NUMBER_OF_BYTES
Video
ID : 1
Format : AVC
Format/Info : Advanced Video Codec
Format profile : High@L4
Format settings, CABAC : Yes
Format settings, ReFrames : 4 frames
Codec ID : V_MPEG4/ISO/AVC
Duration : 2h 21mn
Bit rate mode : Variable
Bit rate : 10.9 Mbps
Maximum bit rate : 15.0 Mbps
Width : 1 920 pixels
Height : 1 080 pixels
Display aspect ratio : 16:9
Frame rate mode : Constant
Frame rate : 23.976 fps
Color space : YUV
Chroma subsampling : 4:2:0
Bit depth : 8 bits
Scan type : Progressive
Bits/(Pixel*Frame) : 0.220
Stream size : 10.8 GiB (94%)
Title : Mastered by whip93
Writing library : x264 core 148 r2623 d5b2374
Encoding settings : cabac=1 / ref=4 / deblock=1:-1:-1 / analyse=0x3:0x133 / me=umh / subme=9 / psy=1 / psy_rd=1.00:0.15 / mixed_ref=1 / me_range=24 / chroma_me=1 / trellis=2 / 8x8dct=1 / cqm=0 / deadzone=21,11 / fast_pskip=1 / chroma_qp_offset=-3 / threads=34 / lookahead_threads=5 / sliced_threads=0 / nr=150 / decimate=1 / interlaced=0 / bluray_compat=0 / constrained_intra=0 / bframes=8 / b_pyramid=2 / b_adapt=2 / b_bias=0 / direct=3 / weightb=1 / open_gop=0 / weightp=2 / keyint=120 / keyint_min=61 / scenecut=0 / intra_refresh=0 / rc_lookahead=120 / rc=crf / mbtree=1 / crf=18.0 / qcomp=0.60 / qpmin=0 / qpmax=69 / qpstep=4 / vbv_maxrate=15000 / vbv_bufsize=31250 / crf_max=0.0 / nal_hrd=vbr / filler=0 / ip_ratio=1.40 / aq=3:1.00
Language : English
Default : Yes
Forced : No
Color range : Limited
Color primaries : BT.709
Transfer characteristics : BT.709
Matrix coefficients : BT.709
Audio #1
ID : 2
Format : AC-3
Format/Info : Audio Coding 3
Mode extension : CM (complete main)
Format settings, Endianness : Big
Codec ID : A_AC3
Duration : 2h 21mn
Bit rate mode : Constant
Bit rate : 192 Kbps
Channel(s) : 2 channels
Channel positions : Front: L R
Sampling rate : 48.0 KHz
Compression mode : Lossy
Stream size : 195 MiB (2%)
Title : MVO (Премьер видео)
Language : Russian
Default : Yes
Forced : No
Audio #2
ID : 3
Format : E-AC-3
Format/Info : Audio Coding 3
Format settings, Endianness : Big
Codec ID : A_EAC3
Duration : 2h 21mn
Bit rate mode : Constant
Bit rate : 224 Kbps
Channel(s) : 2 channels
Channel positions : Front: L R
Sampling rate : 48.0 KHz
Compression mode : Lossy
Stream size : 227 MiB (2%)
Title : Original
Language : English
Default : No
Forced : No
Text
ID : 4
Format : UTF-8
Codec ID : S_TEXT/UTF8
Codec ID/Info : UTF-8 Plain Text
Title : Original (SDH)
Language : English
Default : No
Forced : No
Menu
00:00:00.000 : en:Chapter 1
00:00:14.000 : en:Chapter 2
00:05:10.000 : en:Chapter 3
00:08:33.000 : en:Chapter 4
00:11:39.000 : en:Chapter 5
00:14:20.000 : en:Chapter 6
00:19:52.000 : en:Chapter 7
00:22:44.000 : en:Chapter 8
00:24:31.000 : en:Chapter 9
00:26:16.000 : en:Chapter 10
00:28:44.000 : en:Chapter 11
00:31:38.000 : en:Chapter 12
00:33:28.000 : en:Chapter 13
00:35:03.000 : en:Chapter 14
00:36:16.000 : en:Chapter 15
00:41:35.000 : en:Chapter 16
00:43:40.000 : en:Chapter 17
00:48:33.000 : en:Chapter 18
00:53:32.000 : en:Chapter 19
00:55:16.000 : en:Chapter 20
00:59:23.000 : en:Chapter 21
01:03:47.000 : en:Chapter 22
01:07:22.000 : en:Chapter 23
01:10:48.000 : en:Chapter 24
01:12:17.000 : en:Chapter 25
01:16:20.000 : en:Chapter 26
01:19:16.000 : en:Chapter 27
01:25:56.000 : en:Chapter 28
01:27:31.000 : en:Chapter 29
01:31:11.000 : en:Chapter 30
01:34:35.000 : en:Chapter 31
01:38:09.000 : en:Chapter 32
01:44:06.000 : en:Chapter 33
01:49:18.000 : en:Chapter 34
01:53:42.000 : en:Chapter 35
01:58:41.000 : en:Chapter 36
02:01:43.000 : en:Chapter 37
02:05:42.000 : en:Chapter 38
02:10:06.000 : en:Chapter 39
02:14:18.000 : en:Chapter 40
02:18:02.000 : en:Chapter 41

Скриншоты

-
[iv-torrents.ru].t82588.torrent
Torrent: Registered [ 2018-08-05 17:06 ] · BD8CC4A8AC8F17ACF1EA3BA2CD035EDCE94112B9

Download .torrent

Download

58 KB

Status: checked
Completed: 2 times
Size: 11.45 GB
terms.php


Display posts:    

Current time is: 25-Jun 08:18

All times are UTC ± 0


You cannot post new topics in this forum
You cannot reply to topics in this forum
You cannot edit your posts in this forum
You cannot delete your posts in this forum
You cannot vote in polls in this forum
You cannot attach files in this forum
You can download files in this forum

!ATTENTION!
The site does not give electronic versions of products, and is engaged only in a collecting and cataloguing of the references sent and published at a forum by our readers. If you are the legal owner of any submitted material and do not wish that the reference to it was in our catalogue, contact us and we shall immediately remove her. Files for an exchange on tracker are given by users of a site, and the administration does not bear the responsibility for their maintenance. The request to not fill in the files protected by copyrights, and also files of the illegal maintenance!