Ивановский Торрент трекер
Яндекс.Погода
 

[Цитировать]
HUNTER

Робинзон Крузо: Очень обитаемый остров / Robinson Crusoe«Однажды на берег очень даже обитаемого острова...»- Страна: Франция, Бельгия
Студии: Illuminata Pictures, nWave Pictures, Studio Canal, uFilm
Жанр: Мультфильм, комедия, приключения
Год выпуска: 2016-Дата мировой премьеры: 4 февраля 2016
Дата российской премьеры: 14 апреля 2016, «Вольга»-Продолжительность: 01:26:03
Перевод: Профессиональный (дублированный) [Лицензия]
Субтитры: Украинские
Оригинальная аудиодорожка: Нет-Режиссеры: Винсент Кестелут, Бен Стассен / Vincent Kesteloot, Ben Stassen
Продюсеры: Джина Галло, Мими Мэйнард, Домоник Парис
Роли озвучивали: Маттиас Швайгхёфер, Кая Янар, Илька Бессин, Дитер Халлерворден, Айлин Тецель, Гада Аль-Акель, Tommy Morgenstern, Melanie Hinze, Берт Францке, Тобиас Лелле
Роли дублировали: Пётр Иващенко, Сергей Чихачев...-Описание:
Все знают историю о Робинзоне Крузо, попавшем на необитаемый остров. Однако, как же можно назвать его необитаемым, если он населен разнообразными веселыми животными и птицами? Они очень удивились, впервые встретив это странное существо, и даже приняли его за морское чудовище. Попугаю по кличке Вторник и его друзьям — хамелеону, тапиру и другим обитателям острова предстоит поближе познакомиться с незнакомым зверем «человеком» и вместе с ним пережить массу опасных и веселых приключений.- -Качество: DVD5 (сжатый)
Формат: DVD-Video
Видео: MPEG-2, 720x576@1024x576 (PAL 16:9), ~7100 Кбит/сек
Аудио: AC3 5.1, 448 Кбит/сек [Русский - дублированный]

DVDInfo

Title: Robinson Crusoe (2016) DVD5
Size: 4.37 Gb ( 4 581 854,00 KBytes ) - DVD-5
Enabled regions: 1, 2, 3, 4, 5, 6, 7, 8
VTS_01 :
Play Length: 00:00:00
Video: PAL 4:3 (720x576) VBR
Audio:
Not specified (Dolby AC3, 6 ch)
VTS_02 :
Play Length: 01:26:03
Video: PAL 16:9 (720x576) VBR, Auto Letterboxed
Audio:
Russian (Dolby AC3, 6 ch)
Subtitles:
Ukrainian
* Menus Information *
VIDEO_TS Menu
Video:
NTSC 4:3 (720x480) VBR
Auto Pan&Scan, Auto Letterboxed
English Language Unit :
Title Menu
VTS_01 Menu
Video:
PAL 16:9 (720x576) VBR
Auto Letterboxed
Audio:
Not specified (Dolby AC3, 6 ch)
English Language Unit :
Root Menu
Chapter (PTT) Menu
VTS_02 Menu
Video:
NTSC 4:3 (720x480) VBR
Auto Pan&Scan, Auto Letterboxed
English Language Unit :
Root Menu
Chapter (PTT) Menu

MediaInfo

Общее
Полное имя : G:\Видео\Robinson Crusoe (2016) DVD5\VIDEO_TS\VTS_02_1.VOB
Формат : MPEG-PS
Размер файла : 1024 Мбайт
Продолжительность : 18 м.
Режим общего битрейта : Переменный
Общий поток : 7728 Кбит/сек
Видео
Идентификатор : 224 (0xE0)
Формат : MPEG Video
Версия формата : Version 2
Профиль формата : Main@Main
Параметр BVOP формата : Да
Параметр матрицы формата : По умолчанию
Параметр GOP формата : M=3, N=12
Продолжительность : 18 м.
Вид битрейта : Переменный
Битрейт : 7126 Кбит/сек
Максимальный битрейт : 8500 Кбит/сек
Ширина : 720 пикселей
Высота : 576 пикселей
Соотношение сторон : 16:9
Частота кадров : 25,000 кадров/сек
Стандарт вещания : PAL
Цветовое пространство : YUV
Субдискретизация насыщенности : 4:2:0
Битовая глубина : 8 бит
Тип развёртки : Прогрессивная
Метод сжатия : С потерями
Бит/(Пиксели*Кадры) : 0.687
Временной код первого кадра : 00:00:00:00
Оригинал временного кода : Group of pictures header
GOP, открыто/закрыто : Открыто
GOP, открыто/закрыто на первом кадре : Закрыто
Размер потока : 944 Мбайт (92%)
Аудио
Идентификатор : 189 (0xBD)-128 (0x80)
Формат : AC-3
Формат/Информация : Audio Coding 3
Расширение режима : CM (complete main)
Параметр Endianness формата : Big
Режим смешивания : DVD-Video
Продолжительность : 18 м.
Вид битрейта : Постоянный
Битрейт : 448 Кбит/сек
Каналы : 6 каналов
Расположение каналов : Front: L C R, Side: L R, LFE
Частота : 48,0 КГц
Частота кадров : 31,250 кадров/сек (1536 spf)
Метод сжатия : С потерями
Размер потока : 59,3 Мбайт (6%)
Текст
Идентификатор : 189 (0xBD)-32 (0x20)
Формат : RLE
Формат/Информация : Run-length encoding
Режим смешивания : DVD-Video
Задержка видео : 2 с. 440 мс.
Меню

Доп. информация

Исходник: http://rutracker.org/forum/viewtopic.php?t=5269397
Удалены: предупреждающая надпись, бонусы (в меню кнопки затёрты).
Команды диска переписаны заново, оставлено два VTS.
Видео диска не сжималось!
Меню: статичное, недействующие кнопки затерты и закрыты.
Обработка и сжатие: DVD ReMake Pro + Работа с меню (Adobe PhotoShop и MuxMan).
Скриншот финального проекта:
-

Скриншоты меню

Скриншоты мультфильма



Показать сообщения:    

Текущее время: 21-Сен 13:39

Часовой пояс: UTC ± 0


Вы не можете начинать темы
Вы не можете отвечать на сообщения
Вы не можете редактировать свои сообщения
Вы не можете удалять свои сообщения
Вы не можете голосовать в опросах
Вы не можете прикреплять файлы к сообщениям
Вы не можете скачивать файлы

!ВНИМАНИЕ!
Сайт не предоставляет электронные версии произведений, а занимается лишь коллекционированием и каталогизацией ссылок, присылаемых и публикуемых на форуме нашими читателями. Если вы являетесь правообладателем какого-либо представленного материала и не желаете, чтобы ссылка на него находилась в нашем каталоге, свяжитесь с нами, и мы незамедлительно удалим ее. Файлы для обмена на трекере предоставлены пользователями сайта, и администрация не несет ответственности за их содержание. Просьба не заливать файлы, защищенные авторскими правами, а также файлы нелегального содержания!