Важное объявление!
У Нас Все раздачи мультитрекерные, при нуле пиров в релизах, можете смело вставать на закачку!
Статистика раздачи
Размер:     |    Зарегистрирован:     |    Скачан:     |   
Нет
 
     
 
 
Автор Сообщение

palych74

Стаж:
4 года 11 месяцев
Сообщений:
80

Репутация: 21

[+] [-]
Вне форума [Профиль] [ЛС]

Rihanna - Loud Tour Live At The O2
Год выпуска: 2012
Жанр: Pop, R'n'B
Продолжительность: 1:49:55
Качество: BDRip 720p
Контейнер: MKV
Видео кодек: MPEG-4 AVC
Аудио кодек: AC3
Видео: 1280x720 / 16:9 / 23.976 fps / ~4045 Kbps
Аудио: English AC3 5.1 / 48 kHz / 224 kbps / 16 bits
Дополнительно:
http://www.amazon.com/Rihanna-Loud-Tour-Live-Blu-ray/dp/B00AAQ7JNA
Following on from the release of Rihanna's 7th studio album Unapologetic, Rihanna now gives us LOUD Tour Live At The 02. LOUD Tour Live At The 02 showcases exclusive performance and behind the scenes footage of Rihanna in concert at the 02 Arena in London on the Loud tour.

Трэклист

1. Only Girl (In the World)
2. Disturbia
3. Shut Up and Drive
4. Man Down
5. Darling Nikki
6. S&M
7. Skin
8. Raining Men
9. Hard
10. Breaking Dishes
11. Run This Town
12. Live Your Life
13. Unfaithful
14. Hate That I Love You
15. California King Bed
16. What's My Name
17. Rude Boy
18. Cheers (Drink to That)
19. Don't Stop the Music
20. Take a Bow
21. Love The Way You Lie
22. Umbrella
23. We Found Love

Mediainfo

Код:
General
Unique ID                        : 195027647505072295386118069723580708571 (0x92B8F568DD15A92C9ED8DAF05BE9B6DB)
Complete name                    : C:\Rihanna.Loud.Tour.Live.at.the.O2.2012.720p.MBluRay.x264-SEMTEX.mkv
Format                           : Matroska
File size                        : 3.28 GiB
Duration                         : 1h 49mn
Overall bit rate                 : 4 267 Kbps
Encoded date                     : UTC 2012-12-12 02:59:03
Writing application              : mkvmerge v5.8.0 ('No Sleep / Pillow') built on Sep  2 2012 15:37:04
Writing library                  : libebml v1.2.3 + libmatroska v1.3.0
Video
ID                               : 1
Format                           : AVC
Format/Info                      : Advanced Video Codec
Format profile                   : High@L4.1
Format settings, CABAC           : Yes
Format settings, ReFrames        : 5 frames
Codec ID                         : V_MPEG4/ISO/AVC
Duration                         : 1h 49mn
Bit rate                         : 4 045 Kbps
Width                            : 1 280 pixels
Height                           : 720 pixels
Display aspect ratio             : 16:9
Frame rate                       : 23.976 fps
Color space                      : YUV
Chroma subsampling               : 4:2:0
Bit depth                        : 8 bits
Scan type                        : Progressive
Bits/(Pixel*Frame)               : 0.183
Stream size                      : 3.04 GiB (93%)
Title                            : X264
Writing library                  : x264 core 129 r2230 1cffe9f
Encoding settings                : cabac=1 / ref=5 / deblock=1:0:0 / analyse=0x3:0x133 / me=umh / subme=7 / psy=1 / psy_rd=1.00:0.00 / mixed_ref=1 / me_range=16 / chroma_me=1 / trellis=1 / 8x8dct=1 / cqm=0 / deadzone=21,11 / fast_pskip=0 / chroma_qp_offset=-2 / threads=12 / lookahead_threads=2 / sliced_threads=0 / nr=0 / decimate=1 / interlaced=0 / bluray_compat=0 / constrained_intra=0 / bframes=3 / b_pyramid=2 / b_adapt=1 / b_bias=0 / direct=1 / weightb=1 / open_gop=0 / weightp=2 / keyint=250 / keyint_min=23 / scenecut=40 / intra_refresh=0 / rc_lookahead=40 / rc=2pass / mbtree=1 / bitrate=4045 / ratetol=1.0 / qcomp=0.60 / qpmin=0 / qpmax=69 / qpstep=4 / cplxblur=20.0 / qblur=0.5 / ip_ratio=1.40 / aq=1:1.00
Language                         : English
Audio
ID                               : 2
Format                           : AC-3
Format/Info                      : Audio Coding 3
Mode extension                   : CM (complete main)
Codec ID                         : A_AC3
Duration                         : 1h 49mn
Bit rate mode                    : Constant
Bit rate                         : 224 Kbps
Channel(s)                       : 6 channels
Channel positions                : Front: L C R, Side: L R, LFE
Sampling rate                    : 48.0 KHz
Bit depth                        : 16 bits
Compression mode                 : Lossy
Delay relative to video          : 18ms
Stream size                      : 176 MiB (5%)
Title                            : AC3
Language                         : English
Menu
00:00:00.000                     : en:00:00:00.000
00:01:26.847                     : en:00:01:26.847
00:19:00.191                     : en:00:19:00.191
00:37:18.955                     : en:00:37:18.955
00:56:07.666                     : en:00:56:07.666
01:07:53.246                     : en:01:07:53.246
01:42:46.420                     : en:01:42:46.420
01:46:53.918                     : en:01:46:53.918

Shalun

Стаж:
5 лет
Сообщений:
802

Репутация: 123

[+] [-]
Вне форума [Профиль] [ЛС]

Закрыто из за отсутствие сидера!

_________________
Показать сообщения:    

Текущее время: Сегодня 02:50

Часовой пояс: GMT



Вы не можете начинать темы
Вы не можете отвечать на сообщения
Вы не можете редактировать свои сообщения
Вы не можете удалять свои сообщения
Вы не можете голосовать в опросах
Вы не можете прикреплять файлы к сообщениям
Вы не можете скачивать файлы