Ивановский Торрент трекер
Яндекс.Погода
 

[Цитировать]
HUNTER

-Риддик / Riddick-«Лучший способ отомстить - остаться в живых» -Страна: США, Великобритания
Студия: One Race Productions, Radar Pictures Inc., White Hare
Жанр: фантастика, боевик, триллер
Год выпуска: 2013
Мировая премьера: 4 сентября 2013
Российская премьера: 12 сентября 2013, «Централ Партнершип»
Дата выхода DVD: 6 февраля 2014, «CP Дистрибуция»
Дата выхода Blu-Ray: 6 февраля 2014, «CP Дистрибуция»
Продолжительность: 01:54:02
Перевод: Профессиональный (дублированный) [Лицензия]
Cубтитры: русские
Оригинальная аудиодорожка: английский-Режиссер: Дэвид Туи / David Twohy-В ролях: Вин Дизель, Хорди Молья, Мэтью Нэйбл, Кэти Сакхофф, Дэйв Батиста, Букем Вудбайн, Рауль Трухильо, Конрад Пла, Дэнни Бланко, Карл Урбан...-Описание: Преданный своими и брошенный умирать на пустынной планете, Риддик сражается с хищниками за жизнь и становится сильнее и опаснее себя прежнего. Открывшие на него охоту галактические наемники оказываются пешками в грандиозном плане отмщения. С врагами, возникающими на его пути тогда, когда это нужно самому Риддику, он начинает поход во имя мести, чтобы в конечном счете вернуться на родную Фурию и спасти ее от уничтожения.-Бонусы: Создатели и исполнители- -Релиз группы: -Качество: DVD9 R5
Формат: DVD-Video
Видео кодек: MPEG2
Аудио кодек: AC3 + DTS
Видео: PAL 16:9 (720x576(0.580)) MPEG Video, 25,000 кадр/сек, 6017 Кбит/сек
Аудио #1: Russian (Dolby AC3, 6 ch) 448 Кбит/сек, 48,0 КГц
Аудио #2: English (Dolby AC3, 6 ch) 448 Кбит/сек, 48,0 КГц
Аудио #3: Russian (DTS, 5 ch) 768 Кбит/сек, 48,0 КГц--

DVDInfo

Title: Riddik.2013.DVD9
Size: 6.33 Gb ( 6 641 726,00 KBytes ) - DVD-9
Enabled regions: 1, 2, 3, 4, 5, 6, 7, 8
VTS_01 :
Play Length: 00:00:05
Video: PAL 4:3 (720x576) VBR
Subtitles:
English
English
VTS_02 :
Play Length: 00:00:15
Video: PAL 16:9 (720x576) VBR, Auto Letterboxed
Audio:
Not specified (Dolby AC3, 2 ch)
Not specified (Dolby AC3, 2 ch)
Not specified (Dolby AC3, 2 ch)
Subtitles:
Not specified
VTS_03 :
Play Length: 01:54:02
Video: PAL 16:9 (720x576) VBR, Auto Letterboxed
Audio:
Russian (Dolby AC3, 6 ch)
English (Dolby AC3, 6 ch)
Russian (DTS, 5 ch)
Subtitles:
Russian
* Menus Information *
VIDEO_TS Menu
Video:
PAL 16:9 (720x576) VBR
Auto Pan&Scan, Auto Letterboxed
English Language Unit :
Title Menu
VTS_01 Menu
Video:
PAL 16:9 (720x576) VBR
Auto Letterboxed
Audio:
Not specified (Dolby AC3, 2 ch)
English Language Unit :
Root Menu
VTS_02 Menu
Video:
PAL 4:3 (720x576) VBR
English Language Unit :
Root Menu
VTS_03 Menu
Video:
PAL 4:3 (720x576) VBR
English Language Unit :
Root Menu
Chapter (PTT) Menu

MediaInfo

Общее
Полное имя : K:\Новинки 2013\Riddik.2013.DVD9\VIDEO_TS\VTS_03_4.VOB
Формат : MPEG-PS
Размер файла : 1024 Мбайт
Продолжительность : 18 м.
Режим общего битрейта : Переменный
Общий поток : 7823 Кбит/сек
Видео
Идентификатор : 224 (0xE0)
Формат : MPEG Video
Версия формата : Version 2
Профиль формата : Main@Main
Параметр BVOP формата : Да
Параметр матрицы формата : По умолчанию
Параметр GOP формата : M=3, N=12
Продолжительность : 18 м.
Вид битрейта : Переменный
Битрейт : 6017 Кбит/сек
Максимальный битрейт : 9500 Кбит/сек
Ширина : 720 пикселей
Высота : 576 пикселей
Соотношение сторон : 16:9
Частота кадров : 25,000 кадров/сек
Стандарт вещания : PAL
Цветовое пространство : YUV
Субдискретизация насыщенности : 4:2:0
Битовая глубина : 8 бит
Тип развёртки : Прогрессивная
Метод сжатия : С потерями
Бит/(Пиксели*Кадры) : 0.580
Временной код первого кадра : 00:55:05:05
Оригинал временного кода : Group of pictures header
Размер потока : 787 Мбайт (77%)
Аудио #1
Идентификатор : 189 (0xBD)-128 (0x80)
Формат : AC-3
Формат/Информация : Audio Coding 3
Расширение режима : CM (complete main)
Параметр Endianness формата : Big
Режим смешивания : DVD-Video
Продолжительность : 18 м.
Вид битрейта : Постоянный
Битрейт : 448 Кбит/сек
Каналы : 6 каналов
Расположение каналов : Front: L C R, Side: L R, LFE
Частота : 48,0 КГц
Битовая глубина : 16 бит
Метод сжатия : С потерями
Задержка видео : -512 мс.
Размер потока : 58,6 Мбайт (6%)
Аудио #2
Идентификатор : 189 (0xBD)-129 (0x81)
Формат : AC-3
Формат/Информация : Audio Coding 3
Расширение режима : CM (complete main)
Параметр Endianness формата : Big
Режим смешивания : DVD-Video
Продолжительность : 18 м.
Вид битрейта : Постоянный
Битрейт : 448 Кбит/сек
Каналы : 6 каналов
Расположение каналов : Front: L C R, Side: L R, LFE
Частота : 48,0 КГц
Битовая глубина : 16 бит
Метод сжатия : С потерями
Задержка видео : -512 мс.
Размер потока : 58,6 Мбайт (6%)
Аудио #3
Идентификатор : 189 (0xBD)-138 (0x8A)
Формат : DTS
Формат/Информация : Digital Theater Systems
Режим : 16
Параметр Endianness формата : Big
Режим смешивания : DVD-Video
Продолжительность : 18 м.
Вид битрейта : Постоянный
Битрейт : 755 Кбит/сек
Каналы : 6 каналов
Расположение каналов : Front: L C R, Side: L R, LFE
Частота : 48,0 КГц
Битовая глубина : 16 бит
Метод сжатия : С потерями
Задержка видео : -555 мс.
Размер потока : 98,8 Мбайт (10%)
Текст
Идентификатор : 189 (0xBD)-32 (0x20)
Формат : RLE
Формат/Информация : Run-length encoding
Режим смешивания : DVD-Video

Скриншоты меню

Скриншоты фильма

Скриншоты доп. материалов


-
-Раздача от группы:
Показать сообщения:    

Текущее время: 17-Окт 17:51

Часовой пояс: UTC - 1


Вы не можете начинать темы
Вы не можете отвечать на сообщения
Вы не можете редактировать свои сообщения
Вы не можете удалять свои сообщения
Вы не можете голосовать в опросах
Вы не можете прикреплять файлы к сообщениям
Вы не можете скачивать файлы

!ВНИМАНИЕ!
Сайт не предоставляет электронные версии произведений, а занимается лишь коллекционированием и каталогизацией ссылок, присылаемых и публикуемых на форуме нашими читателями. Если вы являетесь правообладателем какого-либо представленного материала и не желаете, чтобы ссылка на него находилась в нашем каталоге, свяжитесь с нами, и мы незамедлительно удалим ее. Файлы для обмена на трекере предоставлены пользователями сайта, и администрация не несет ответственности за их содержание. Просьба не заливать файлы, защищенные авторскими правами, а также файлы нелегального содержания!