Ивановский Торрент трекер
Яндекс.Погода
DL-List and Torrent activity
None
 
     
 
 

[Quote]
HUNTER

Революция космических роботов / Space robot Revolution
Дата/Год выпуска: 2016
Страна: США, Films Concept Associes
Жанр: Документальный, научно-популярный, космос, роботототехника
Продолжительность: 00:52:25
Перевод: Студийный (одноголосый закадровый)
Доп. инфо о переводе: Видеофильм ТВ
Русские субтитры: нет
Оригинальная аудиодорожка: нет
Режиссер: Melanie Dalsace / Мелания Дельзас
Телеканал: Наука
Описание: Робототехника сейчас везде. Люди уже очень тесно сотрудничают с роботами, а кое-где заменены ими. Но ключевую роль роботы должны сыграть в будущем завоевании космоса. Некоторые андроиды уже отправлены туда, другие же, более высокого качества, скоро придут им в помощь или на смену. Что же делают космические роботы, и как они выглядят? Почему и каким образом они так успешно выполняют космические миссии?
Сэмпл: https://www.sendspace.com/file/vjo1l1
качество: DVB
формат: TS
Видео: 720x576@1046x576 (16:9) AVC (H.264) Main@L3.0, ~ 2344 kbps, 25fps
Аудио: Русский 48 kHz, MPEG Layer 2, 2 ch, ~192.00 kbps avg

MediaInfo

Complete name : F:\Наладки\SD-фильмы\Революция космических роботов.ts
Format : MPEG-TS
File size : 1 001 MiB
Duration : 52 min 25 s
Overall bit rate mode : Variable
Overall bit rate : 2 669 kb/s
Video
ID : 401 (0x191)
Menu ID : 2608 (0xA30)
Format : AVC
Format/Info : Advanced Video Codec
Format profile : Main@L3
Format settings : CABAC / 4 Ref Frames
Format settings, CABAC : Yes
Format settings, ReFrames : 4 frames
Codec ID : 27
Duration : 52 min 24 s
Bit rate : 2 344 kb/s
Width : 720 pixels
Height : 576 pixels
Display aspect ratio : 16:9
Frame rate : 25.000 FPS
Standard : Component
Color space : YUV
Chroma subsampling : 4:2:0
Bit depth : 8 bits
Scan type : Interlaced
Scan type, store method : Separated fields
Scan order : Top Field First
Bits/(Pixel*Frame) : 0.226
Stream size : 879 MiB (88%)
Color range : Limited
Color primaries : BT.601 PAL
Transfer characteristics : BT.470 System B, BT.470 System G
Matrix coefficients : BT.470 System B, BT.470 System G
Audio
ID : 402 (0x192)
Menu ID : 2608 (0xA30)
Format : MPEG Audio
Format version : Version 1
Format profile : Layer 2
Codec ID : 3
Duration : 52 min 25 s
Bit rate mode : Constant
Bit rate : 192 kb/s
Channel(s) : 2 channels
Sampling rate : 48.0 kHz
Frame rate : 41.667 FPS (1152 SPF)
Compression mode : Lossy
Delay relative to video : -40 ms
Stream size : 72.0 MiB (7%)
Language : Russian


Display posts:    

Current time is: 21-May 19:22

All times are UTC ± 0


You cannot post new topics in this forum
You cannot reply to topics in this forum
You cannot edit your posts in this forum
You cannot delete your posts in this forum
You cannot vote in polls in this forum
You cannot attach files in this forum
You cannot download files in this forum

!ATTENTION!
The site does not give electronic versions of products, and is engaged only in a collecting and cataloguing of the references sent and published at a forum by our readers. If you are the legal owner of any submitted material and do not wish that the reference to it was in our catalogue, contact us and we shall immediately remove her. Files for an exchange on tracker are given by users of a site, and the administration does not bear the responsibility for their maintenance. The request to not fill in the files protected by copyrights, and also files of the illegal maintenance!