Ивановский Торрент трекер
Яндекс.Погода
 

[Цитировать]
HUNTER

- Resident Evil 5 - Retribution / Обитель Зла 5 - Возмездие-Слоган: «А зомби здесь тихие...»-Год выпуска: 2012
Страна: Канада, Германия, США
Жанр: Ужасы, фантастика, боевик
Продолжительность: 01:35:37
Перевод: Профессиональный (полное дублирование)
Русские субтитры: есть-Режиссер: Пол В.С. Андерсон / Paul W.S. Anderson-В ролях: Милла Йовович, Мишель Родригес, Сиенна Гиллори, Кевин Дюранд, Йохан Урб, Колин Сэмон, Ли Бинбин, Шон Робертс, Одед Фер, Спенсер Лок и др.-Описание: Смертельный T-вирус, созданный в лабораториях корпорации «Амбрелла», продолжает захватывать Землю, превращая мировое население в легионы пожирающих плоть зомби. Последняя надежда человечества, Элис, внедряется в самое сердце самой тайной исследовательской базы корпорации и узнает еще больше о собственном таинственном прошлом. Не имея путей к отступлению, Элис продолжает искать виновных в глобальной катастрофе. Вызов, который она принимала в Токио, Нью-Йорке, Вашингтоне и даже в Москве, приводит ее в итоге к взрывающему сознание откровению, которое заставит ее переосмыслить все, что она полагала правдой. С помощью новых союзников и старых друзей, Элис будет сражаться за выживание и убегать из враждебного мира. Отсчет времени начат…-Качество: BDRemux 1080p
Формат: MKV
Видео кодек: AVC
Аудио кодек: DTS, AC3
Видео: 1920x1080; AVC, 23.976 fps, 23958 kbps
Аудио:
Русский AC3 5.1, 640 kbps (Дубляж, Blu-ray EUR)
Русский DTS 5.1, 3418 kbps (Одноголосый закадровый, Данис Нурмухаметов)
Украинский AC3 5.1, 640 kbps (Дубляж, Blu-ray EUR)
Английский DTS 5.1, 3360 kbps (Оригинальный)
Английский AC3 2.0, 192 kbps (Коментарии 1)
Английский AC3 2.0, 192 kbps (Коментарии 2)
Чешский AC3 5.1, 640 kbps
Венгерский AC3 5.1, 640 kbps
Польский AC3 5.1, 640 kbps
Турецкий AC3 5.1, 640 kbps
Субтитры: Русские, Английские (SDH), Английские-

Доп.информация

Ссылки
-

MI

Код: copyText_writeLink('this.parentNode.parentNode.nextSibling.nextSibling');
General
Unique ID : 211915293322653076746459701717281247937 (0x9F6D66A1EE52B519A8180153571792C1)
Format : Matroska
Format version : Version 4 / Version 2
File size : 23.3 GiB
Duration : 1h 35mn
Overall bit rate mode : Variable
Overall bit rate : 34.9 Mbps
Movie name : Resident.Evil 5 Retribution / Обитель Зла 5 Возмездие by KoRn0509
Encoded date : UTC 2010-02-22 21:41:31
Writing application : mkvmerge v5.9.0 ('On The Loose') built on Dec 9 2012 15:37:01
Writing library : libebml v1.3.0 + libmatroska v1.4.0
Attachment : Yes
Video
ID : 1
Format : AVC
Format/Info : Advanced Video Codec
Format profile : High@L4.1
Format settings, CABAC : Yes
Format settings, ReFrames : 2 frames
Format settings, GOP : M=1, N=10
Muxing mode : Header stripping
Codec ID : V_MPEG4/ISO/AVC
Duration : 1h 35mn
Bit rate mode : Variable
Width : 1 920 pixels
Height : 1 080 pixels
Display aspect ratio : 16:9
Frame rate mode : Constant
Frame rate : 23.976 fps
Color space : YUV
Chroma subsampling : 4:2:0
Bit depth : 8 bits
Scan type : Progressive
Title : Resident.Evil 5 Retribution / Обитель Зла 5 Возмездие
Language : English
Default : Yes
Forced : No
Audio #1
ID : 2
Format : AC-3
Format/Info : Audio Coding 3
Mode extension : CM (complete main)
Format settings, Endianness : Big
Muxing mode : Header stripping
Codec ID : A_AC3
Duration : 1h 35mn
Bit rate mode : Constant
Bit rate : 640 Kbps
Channel(s) : 6 channels
Channel positions : Front: L C R, Side: L R, LFE
Sampling rate : 48.0 KHz
Bit depth : 16 bits
Compression mode : Lossy
Stream size : 438 MiB (2%)
Title : AC3 5.1, 640 kbps (Русский дубляж Blu-ray EUR)
Language : Russian
Default : Yes
Forced : No
Audio #2
ID : 3
Format : DTS
Format/Info : Digital Theater Systems
Format profile : MA / Core
Mode : 16
Format settings, Endianness : Big
Muxing mode : Header stripping
Codec ID : A_DTS
Duration : 1h 35mn
Bit rate mode : Variable
Bit rate : Unknown / 1 509 Kbps
Channel(s) : 6 channels
Channel positions : Front: L C R, Side: L R, LFE
Sampling rate : 48.0 KHz
Bit depth : 24 bits
Compression mode : Lossless / Lossy
Title : DTS 5.1, 3418 kbps (Русский одноголосый, Данис Нурмухаметов)
Language : Russian
Default : No
Forced : No
Audio #3
ID : 4
Format : AC-3
Format/Info : Audio Coding 3
Mode extension : CM (complete main)
Format settings, Endianness : Big
Muxing mode : Header stripping
Codec ID : A_AC3
Duration : 1h 35mn
Bit rate mode : Constant
Bit rate : 640 Kbps
Channel(s) : 6 channels
Channel positions : Front: L C R, Side: L R, LFE
Sampling rate : 48.0 KHz
Bit depth : 16 bits
Compression mode : Lossy
Stream size : 438 MiB (2%)
Title : AC3 5.1, 640 kbps (Украинский дубляж Blu-ray EUR)
Language : Ukrainian
Default : No
Forced : No
Audio #4
ID : 5
Format : DTS
Format/Info : Digital Theater Systems
Format profile : MA / Core
Mode : 16
Format settings, Endianness : Big
Muxing mode : Header stripping
Codec ID : A_DTS
Duration : 1h 35mn
Bit rate mode : Variable
Bit rate : Unknown / 1 509 Kbps
Channel(s) : 6 channels
Channel positions : Front: L C R, Side: L R, LFE
Sampling rate : 48.0 KHz
Bit depth : 24 bits
Compression mode : Lossless / Lossy
Title : DTS 5.1, 3360 kbps (Английский)
Language : English
Default : No
Forced : No
Audio #5
ID : 6
Format : AC-3
Format/Info : Audio Coding 3
Format profile : Dolby Digital
Mode extension : CM (complete main)
Format settings, Endianness : Big
Muxing mode : Header stripping
Codec ID : A_AC3
Duration : 1h 35mn
Bit rate mode : Constant
Bit rate : 192 Kbps
Channel(s) : 2 channels
Channel positions : Front: L R
Sampling rate : 48.0 KHz
Bit depth : 16 bits
Compression mode : Lossy
Stream size : 131 MiB (1%)
Title : AC3 2.0, 192 kbps (Коментарии)
Language : English
Default : No
Forced : No
Audio #6
ID : 7
Format : AC-3
Format/Info : Audio Coding 3
Format profile : Dolby Digital
Mode extension : CM (complete main)
Format settings, Endianness : Big
Muxing mode : Header stripping
Codec ID : A_AC3
Duration : 1h 35mn
Bit rate mode : Constant
Bit rate : 192 Kbps
Channel(s) : 2 channels
Channel positions : Front: L R
Sampling rate : 48.0 KHz
Bit depth : 16 bits
Compression mode : Lossy
Stream size : 131 MiB (1%)
Title : AC3 2.0, 192 kbps (Коментарии)
Language : English
Default : No
Forced : No
Audio #7
ID : 8
Format : AC-3
Format/Info : Audio Coding 3
Mode extension : CM (complete main)
Format settings, Endianness : Big
Muxing mode : Header stripping
Codec ID : A_AC3
Duration : 1h 35mn
Bit rate mode : Constant
Bit rate : 640 Kbps
Channel(s) : 6 channels
Channel positions : Front: L C R, Side: L R, LFE
Sampling rate : 48.0 KHz
Bit depth : 16 bits
Compression mode : Lossy
Stream size : 438 MiB (2%)
Title : AC3 5.1, 640 kbps (Чешский)
Language : Czech
Default : No
Forced : No
Audio #8
ID : 9
Format : AC-3
Format/Info : Audio Coding 3
Mode extension : CM (complete main)
Format settings, Endianness : Big
Muxing mode : Header stripping
Codec ID : A_AC3
Duration : 1h 35mn
Bit rate mode : Constant
Bit rate : 640 Kbps
Channel(s) : 6 channels
Channel positions : Front: L C R, Side: L R, LFE
Sampling rate : 48.0 KHz
Bit depth : 16 bits
Compression mode : Lossy
Stream size : 438 MiB (2%)
Title : AC3 5.1, 640 kbps (Венгерский)
Language : Hungarian
Default : No
Forced : No
Audio #9
ID : 10
Format : AC-3
Format/Info : Audio Coding 3
Mode extension : CM (complete main)
Format settings, Endianness : Big
Muxing mode : Header stripping
Codec ID : A_AC3
Duration : 1h 35mn
Bit rate mode : Constant
Bit rate : 640 Kbps
Channel(s) : 6 channels
Channel positions : Front: L C R, Side: L R, LFE
Sampling rate : 48.0 KHz
Bit depth : 16 bits
Compression mode : Lossy
Stream size : 438 MiB (2%)
Title : AC3 5.1, 640 kbps (Польский)
Language : Polish
Default : No
Forced : No
Audio #10
ID : 11
Format : AC-3
Format/Info : Audio Coding 3
Mode extension : CM (complete main)
Format settings, Endianness : Big
Muxing mode : Header stripping
Codec ID : A_AC3
Duration : 1h 35mn
Bit rate mode : Constant
Bit rate : 640 Kbps
Channel(s) : 6 channels
Channel positions : Front: L C R, Side: L R, LFE
Sampling rate : 48.0 KHz
Bit depth : 16 bits
Compression mode : Lossy
Stream size : 438 MiB (2%)
Title : AC3 5.1, 640 kbps (Турецкий)
Language : Turkish
Default : No
Forced : No
Text #1
ID : 12
Format : UTF-8
Codec ID : S_TEXT/UTF8
Codec ID/Info : UTF-8 Plain Text
Title : Русские
Language : Russian
Default : No
Forced : No
Text #2
ID : 13
Format : UTF-8
Codec ID : S_TEXT/UTF8
Codec ID/Info : UTF-8 Plain Text
Title : Английские (SDH)
Language : English
Default : No
Forced : No
Text #3
ID : 14
Format : UTF-8
Codec ID : S_TEXT/UTF8
Codec ID/Info : UTF-8 Plain Text
Title : Английские
Language : English
Default : No
Forced : No
-

Скриншоты

-[
Показать сообщения:    

Текущее время: 25-Сен 19:19

Часовой пояс: UTC - 1


Вы не можете начинать темы
Вы не можете отвечать на сообщения
Вы не можете редактировать свои сообщения
Вы не можете удалять свои сообщения
Вы не можете голосовать в опросах
Вы не можете прикреплять файлы к сообщениям
Вы не можете скачивать файлы

!ВНИМАНИЕ!
Сайт не предоставляет электронные версии произведений, а занимается лишь коллекционированием и каталогизацией ссылок, присылаемых и публикуемых на форуме нашими читателями. Если вы являетесь правообладателем какого-либо представленного материала и не желаете, чтобы ссылка на него находилась в нашем каталоге, свяжитесь с нами, и мы незамедлительно удалим ее. Файлы для обмена на трекере предоставлены пользователями сайта, и администрация не несет ответственности за их содержание. Просьба не заливать файлы, защищенные авторскими правами, а также файлы нелегального содержания!