Ивановский Торрент трекер
Яндекс.Погода
 

[Цитировать]
HUNTER

- Resident Evil - Degeneration / Обитель Зла - Вырождение-Год выпуска: 2008
Страна: Япония
Жанр: Ужасы, фантастика, мультфильм, приключения
Продолжительность: 01:36:05
Перевод: Профессиональный (многоголосый, закадровый)
Русские субтитры: есть-Режиссер: Макото Камия / Makoto Kamiya-В ролях: Элисон Корт, Пол Мерсье, Лаура Бэйли, Стивен Блум, Криспин Фриман, Дэйв Маллоу, Жоржетт Роуз, Роджер Крэйг Смит, Майкл Сорич-Описание: Нападение зомби приносит хаос в аэропорт Харвардвиль. Клэр Рэдфилд и Леон Кеннеди боровшиеся с корпорацией «Umbrella» во время трагедии в Раккун Сити 7 лет назад вновь вернулись. Они готовы к битве с противником который ищет мести после смерти его семьи в Раккун Сити. Смертельный G-вирус выпущен на свободу и рождает нового мутировавшего монстра. Уничтожат ли Клэр и Леон этот вирус до того как история повторится?-Качество: BDRemux 1080p
Формат: MKV
Видео кодек: H.264
Аудио кодек: AC3, MP3, DTS
Видео: MPEG4 Video (H264) 1920x1080 23.98fps 30Mbps
Аудио:
Русский AC3 6ch, 448 kbps (Профессиональный многоголосый закадровый, Blu-ray CEE)
Русский DTS 5.1 755 kbps (Профессиональный двухголосый)
Русский MP3 2ch, 128 kbps (Любтиельский, одноголосый)
Английский AC3 6ch, 3267 kbps
Японский AC3 6ch, 448 kbps
Чешский AC3 6ch, 448 kbps
Венгерский AC3 6ch, 448 kbps
Польский AC3 6ch, 448 kbps
Турецкий AC3 6ch, 448 kbps
Субтитры: Русские (форсированые), Русские, Украинские, Английские, Венгерские, Индонезийские, Польские, Португальские, Румынские, Словенские, Испанские, Шведские, Турецкие, Датские, Немецкие, Финские, Французские-

Доп.информация

Ссылки: |
- это Remux
-

MI

Код: copyText_writeLink('this.parentNode.parentNode.nextSibling.nextSibling'); Общее
Уникальный идентификатор : 210294151975291721868169613623035575887 (0x9E352E3170494D20A58331F9F0CA3E4F)
Формат : Matroska
Версия формата : Version 2
Размер файла : 19,5 Гбайт
Продолжительность : 1 ч. 36 м.
Режим общего битрейта : Переменный
Общий поток : 29,1 Мбит/сек
Название фильма : Resident Evil - Degeneration - Обитель Зла - Вырождение by KoRn0509
Дата кодирования : UTC 2012-10-28 19:20:49
Программа кодирования : mkvmerge v5.7.0 ('The Whirlwind') built on Jul 29 2012 15:12:35
Библиотека кодирования : libebml v1.2.3 + libmatroska v1.3.0
Attachment : Yes / Yes / Yes / Yes
Видео
Идентификатор : 1
Формат : AVC
Формат/Информация : Advanced Video Codec
Профиль формата : High@L4.1
Параметр CABAC формата : Да
Параметр ReFrames формата : 2 кадра
Режим смешивания : Header stripping
Идентификатор кодека : V_MPEG4/ISO/AVC
Продолжительность : 1 ч. 36 м.
Вид битрейта : Переменный
Ширина : 1920 пикселей
Высота : 1080 пикселей
Соотношение сторон : 16:9
Режим частоты кадров : Постоянный
Частота кадров : 23,976 кадра/сек
Цветовое пространство : YUV
Субдискретизация насыщенности : 4:2:0
Битовая глубина : 8 бит
Тип развёртки : Прогрессивная
Заголовок : Resident Evil - Degeneration - Обитель Зла - Вырождение
Язык : English
Default : Нет
Forced : Нет
Аудио #1
Идентификатор : 2
Формат : AC-3
Формат/Информация : Audio Coding 3
Расширение режима : CM (complete main)
Параметр Endianness формата : Big
Режим смешивания : Header stripping
Идентификатор кодека : A_AC3
Продолжительность : 1 ч. 36 м.
Вид битрейта : Постоянный
Битрейт : 448 Кбит/сек
Каналы : 6 каналов
Расположение каналов : Front: L C R, Side: L R, LFE
Частота : 48,0 КГц
Битовая глубина : 16 бит
Метод сжатия : С потерями
Размер потока : 308 Мбайт (2%)
Заголовок : AC3 6ch, 448 kbps (Русский, профессиональный многоголосый закадровый)
Язык : Russian
Default : Да
Forced : Нет
Аудио #2
Идентификатор : 3
Формат : DTS
Формат/Информация : Digital Theater Systems
Режим смешивания : Header stripping
Идентификатор кодека : A_DTS
Продолжительность : 1 ч. 36 м.
Вид битрейта : Постоянный
Битрейт : 755 Кбит/сек
Каналы : 6 каналов
Расположение каналов : Front: L C R, Side: L R, LFE
Частота : 48,0 КГц
Битовая глубина : 24 бит
Метод сжатия : С потерями
Размер потока : 519 Мбайт (3%)
Заголовок : DTS 5.1 755 kbps (Русский Профессиональный двухголосый)
Язык : Russian
Default : Нет
Forced : Нет
Аудио #3
Идентификатор : 4
Формат : MPEG Audio
Версия формата : Version 1
Профиль формата : Layer 3
Режим смешивания : Header stripping
Идентификатор кодека : A_MPEG/L3
Идентификатор кодека/Подсказка : MP3
Продолжительность : 1 ч. 36 м.
Вид битрейта : Постоянный
Битрейт : 128 Кбит/сек
Каналы : 2 канала
Частота : 44,1 КГц
Метод сжатия : С потерями
Размер потока : 88,0 Мбайт (0%)
Заголовок : MP3 5.1, 128 kbps (Русский Любтиельский, одноголосый)
Язык : Russian
Default : Нет
Forced : Нет
Аудио #4
Идентификатор : 5
Формат : TrueHD
Идентификатор кодека : A_TRUEHD
Продолжительность : 1 ч. 36 м.
Вид битрейта : Переменный
Максимальный битрейт : 3267 Кбит/сек
Каналы : 6 каналов
Расположение каналов : Front: L C R, Side: L R, LFE
Частота : 48,0 КГц
Метод сжатия : Без потерь
Заголовок : AC3 6ch, 3267 kbps (Английский)
Язык : English
Default : Нет
Forced : Нет
Аудио #5
Идентификатор : 6
Формат : AC-3
Формат/Информация : Audio Coding 3
Расширение режима : CM (complete main)
Параметр Endianness формата : Big
Режим смешивания : Header stripping
Идентификатор кодека : A_AC3
Продолжительность : 1 ч. 36 м.
Вид битрейта : Постоянный
Битрейт : 448 Кбит/сек
Каналы : 6 каналов
Расположение каналов : Front: L C R, Side: L R, LFE
Частота : 48,0 КГц
Битовая глубина : 16 бит
Метод сжатия : С потерями
Размер потока : 308 Мбайт (2%)
Заголовок : AC3 6ch, 448 kbps (Японский)
Язык : Japanese
Default : Нет
Forced : Нет
Аудио #6
Идентификатор : 7
Формат : AC-3
Формат/Информация : Audio Coding 3
Расширение режима : CM (complete main)
Параметр Endianness формата : Big
Режим смешивания : Header stripping
Идентификатор кодека : A_AC3
Продолжительность : 1 ч. 36 м.
Вид битрейта : Постоянный
Битрейт : 448 Кбит/сек
Каналы : 6 каналов
Расположение каналов : Front: L C R, Side: L R, LFE
Частота : 48,0 КГц
Битовая глубина : 16 бит
Метод сжатия : С потерями
Размер потока : 308 Мбайт (2%)
Заголовок : AC3 6ch, 448 kbps (Чешский)
Язык : Czech
Default : Нет
Forced : Нет
Аудио #7
Идентификатор : 8
Формат : AC-3
Формат/Информация : Audio Coding 3
Расширение режима : CM (complete main)
Параметр Endianness формата : Big
Режим смешивания : Header stripping
Идентификатор кодека : A_AC3
Продолжительность : 1 ч. 36 м.
Вид битрейта : Постоянный
Битрейт : 448 Кбит/сек
Каналы : 6 каналов
Расположение каналов : Front: L C R, Side: L R, LFE
Частота : 48,0 КГц
Битовая глубина : 16 бит
Метод сжатия : С потерями
Размер потока : 308 Мбайт (2%)
Заголовок : AC3 6ch, 448 kbps (Венгерский)
Язык : Hungarian
Default : Нет
Forced : Нет
Аудио #8
Идентификатор : 9
Формат : AC-3
Формат/Информация : Audio Coding 3
Расширение режима : CM (complete main)
Параметр Endianness формата : Big
Режим смешивания : Header stripping
Идентификатор кодека : A_AC3
Продолжительность : 1 ч. 36 м.
Вид битрейта : Постоянный
Битрейт : 448 Кбит/сек
Каналы : 6 каналов
Расположение каналов : Front: L C R, Side: L R, LFE
Частота : 48,0 КГц
Битовая глубина : 16 бит
Метод сжатия : С потерями
Размер потока : 308 Мбайт (2%)
Заголовок : AC3 6ch, 448 kbps (Польский)
Язык : Polish
Default : Нет
Forced : Нет
Аудио #9
Идентификатор : 10
Формат : AC-3
Формат/Информация : Audio Coding 3
Расширение режима : CM (complete main)
Параметр Endianness формата : Big
Режим смешивания : Header stripping
Идентификатор кодека : A_AC3
Продолжительность : 1 ч. 36 м.
Вид битрейта : Постоянный
Битрейт : 448 Кбит/сек
Каналы : 6 каналов
Расположение каналов : Front: L C R, Side: L R, LFE
Частота : 48,0 КГц
Битовая глубина : 16 бит
Метод сжатия : С потерями
Размер потока : 308 Мбайт (2%)
Заголовок : AC3 6ch, 448 kbps (Турецкий)
Язык : Turkish
Default : Нет
Forced : Нет
Текст #1
Идентификатор : 11
Формат : UTF-8
Идентификатор кодека : S_TEXT/UTF8
Идентификатор кодека/Информация : UTF-8 Plain Text
Заголовок : Надписи, прочее...
Язык : Russian
Default : Нет
Forced : Нет
Текст #2
Идентификатор : 12
Формат : UTF-8
Идентификатор кодека : S_TEXT/UTF8
Идентификатор кодека/Информация : UTF-8 Plain Text
Язык : Russian
Default : Нет
Forced : Нет
Текст #3
Идентификатор : 13
Формат : UTF-8
Идентификатор кодека : S_TEXT/UTF8
Идентификатор кодека/Информация : UTF-8 Plain Text
Язык : Ukrainian
Default : Нет
Forced : Нет
Текст #4
Идентификатор : 14
Формат : ASS
Идентификатор кодека : S_TEXT/ASS
Идентификатор кодека/Информация : Advanced Sub Station Alpha
Метод сжатия : Без потерь
Язык : Hungarian
Default : Нет
Forced : Нет
Текст #5
Идентификатор : 15
Формат : ASS
Идентификатор кодека : S_TEXT/ASS
Идентификатор кодека/Информация : Advanced Sub Station Alpha
Метод сжатия : Без потерь
Язык : Indonesian
Default : Нет
Forced : Нет
Текст #6
Идентификатор : 16
Формат : ASS
Идентификатор кодека : S_TEXT/ASS
Идентификатор кодека/Информация : Advanced Sub Station Alpha
Метод сжатия : Без потерь
Язык : Polish
Default : Нет
Forced : Нет
Текст #7
Идентификатор : 17
Формат : ASS
Идентификатор кодека : S_TEXT/ASS
Идентификатор кодека/Информация : Advanced Sub Station Alpha
Метод сжатия : Без потерь
Язык : Portuguese
Default : Нет
Forced : Нет
Текст #8
Идентификатор : 18
Формат : ASS
Идентификатор кодека : S_TEXT/ASS
Идентификатор кодека/Информация : Advanced Sub Station Alpha
Метод сжатия : Без потерь
Язык : Romanian
Default : Нет
Forced : Нет
Текст #9
Идентификатор : 19
Формат : ASS
Идентификатор кодека : S_TEXT/ASS
Идентификатор кодека/Информация : Advanced Sub Station Alpha
Метод сжатия : Без потерь
Язык : Slovenian
Default : Нет
Forced : Нет
Текст #10
Идентификатор : 20
Формат : ASS
Идентификатор кодека : S_TEXT/ASS
Идентификатор кодека/Информация : Advanced Sub Station Alpha
Метод сжатия : Без потерь
Язык : Spanish
Default : Нет
Forced : Нет
Текст #11
Идентификатор : 21
Формат : ASS
Идентификатор кодека : S_TEXT/ASS
Идентификатор кодека/Информация : Advanced Sub Station Alpha
Метод сжатия : Без потерь
Язык : Swedish
Default : Нет
Forced : Нет
Текст #12
Идентификатор : 22
Формат : ASS
Идентификатор кодека : S_TEXT/ASS
Идентификатор кодека/Информация : Advanced Sub Station Alpha
Метод сжатия : Без потерь
Язык : Turkish
Default : Нет
Forced : Нет
Текст #13
Идентификатор : 23
Формат : ASS
Идентификатор кодека : S_TEXT/ASS
Идентификатор кодека/Информация : Advanced Sub Station Alpha
Метод сжатия : Без потерь
Язык : English
Default : Нет
Forced : Нет
Текст #14
Идентификатор : 24
Формат : ASS
Идентификатор кодека : S_TEXT/ASS
Идентификатор кодека/Информация : Advanced Sub Station Alpha
Метод сжатия : Без потерь
Язык : Danish
Default : Нет
Forced : Нет
Текст #15
Идентификатор : 25
Формат : ASS
Идентификатор кодека : S_TEXT/ASS
Идентификатор кодека/Информация : Advanced Sub Station Alpha
Метод сжатия : Без потерь
Язык : Dutch
Default : Нет
Forced : Нет
Текст #16
Идентификатор : 26
Формат : ASS
Идентификатор кодека : S_TEXT/ASS
Идентификатор кодека/Информация : Advanced Sub Station Alpha
Метод сжатия : Без потерь
Язык : Finnish
Default : Нет
Forced : Нет
Текст #17
Идентификатор : 27
Формат : ASS
Идентификатор кодека : S_TEXT/ASS
Идентификатор кодека/Информация : Advanced Sub Station Alpha
Метод сжатия : Без потерь
Язык : French
Default : Нет
Forced : Нет
-

Скриншоты

-Resident evil / Обитель злаResident Evil 2 - Apocalypse / Обитель зла 2 - АпокалипсисResident Evil 2 - Apocalypse (Extended version) / Обитель зла 2 - Апокалипсис (Расширенная версия)Resident Evil 3 - Extinction / Обитель зла 3 - ВымираниеResident Evil 4 - Afterlife / Обитель зла 4 - Жизнь после смертиResident Evil 5 - Retribution / Обитель Зла 5 - Возмездие-Resident Evil - Degeneration / Обитель зла - ВырождениеResident Evil - Damnation / Обитель зла - ПроклятиеResident Evil - 4D Executer / Обитель Зла - 4D Палач / Исполнитель
Показать сообщения:    

Текущее время: 26-Сен 11:49

Часовой пояс: UTC - 1


Вы не можете начинать темы
Вы не можете отвечать на сообщения
Вы не можете редактировать свои сообщения
Вы не можете удалять свои сообщения
Вы не можете голосовать в опросах
Вы не можете прикреплять файлы к сообщениям
Вы не можете скачивать файлы

!ВНИМАНИЕ!
Сайт не предоставляет электронные версии произведений, а занимается лишь коллекционированием и каталогизацией ссылок, присылаемых и публикуемых на форуме нашими читателями. Если вы являетесь правообладателем какого-либо представленного материала и не желаете, чтобы ссылка на него находилась в нашем каталоге, свяжитесь с нами, и мы незамедлительно удалим ее. Файлы для обмена на трекере предоставлены пользователями сайта, и администрация не несет ответственности за их содержание. Просьба не заливать файлы, защищенные авторскими правами, а также файлы нелегального содержания!