Важное объявление!
У Нас Все раздачи мультитрекерные, при нуле пиров в релизах, можете смело вставать на закачку!
 
Автор Сообщение

HUNTER

Стаж:
4 года 10 месяцев
Сообщений:
65561

Репутация: 101

[+] [-]
Вне форума [Профиль] [ЛС]

-
Resident Evil - Damnation / Обитель зла - Проклятие-Год выпуска: 2012
Страна: Япония
Жанр: Ужасы, фантастика, мультфильм, приключения
Продолжительность: 01:40:02
Перевод: Профессиональный (многоголосый, закадровый)
Русские субтитры: есть-Режиссер: Макото Камия / Makoto Kamiya-В ролях: Робин Сакс, Кортни Тейлор, Кэролин Лоуренс, Мэттью Мерсер, Уэнди Ли, Дейв Уиттенберг, Салли Саффиоти, Вэл Тассо, Элисон Корт-Описание: Продолжение популярной компьютерной анимации «Обитель зла: Вырождение». Леон Кеннеди отправляется в Восточную Европу на борьбу с монстрами — порождениями корпорации Амбрела. Больше монстров, больше пушек, больше экшена.-Качество: BDRemux 1080p
Формат: MKV
Видео кодек: H.264
Аудио кодек: AC3, DTS
Видео: MPEG-4 AVC Video 28048 kbps 1080p / 23,976 fps / 16:9 / High Profile 4.1
Аудио:
Русский DTS 6ch, 2302 kbps (Профессиональный многоголосый закадровый, Blu-ray CEE)
Английский DTS 6ch, 2298 kbps
Турецкий AC3 6ch, 640 kbps
Польский AC3 6ch, 640 kbps
Венгерский AC3 6ch, 640 kbps
Чешский AC3 6ch, 640 kbps
Субтитры: Русские, Украинские, Английские-

Доп.информация

Ссылки: |
- это Remux
-

MI

Код: copyText_writeLink('this.parentNode.parentNode.nextSibling.nextSibling'); Общее
Уникальный идентификатор : 188416761320842458310979283258223576348 (0x8DBFBF8E4F581391A8A78D8A1C3F451C)
Формат : Matroska
Версия формата : Version 2
Размер файла : 24,6 Гбайт
Продолжительность : 1 ч. 40 м.
Режим общего битрейта : Переменный
Общий поток : 35,2 Мбит/сек
Название фильма : Resident Evil - Damnation / Обитель зла - Проклятие by KoRn0509
Дата кодирования : UTC 2012-10-30 13:19:16
Программа кодирования : mkvmerge v5.7.0 ('The Whirlwind') built on Jul 29 2012 15:12:35
Библиотека кодирования : libebml v1.2.3 + libmatroska v1.3.0
Attachment : Yes
Видео
Идентификатор : 1
Формат : AVC
Формат/Информация : Advanced Video Codec
Профиль формата : [url=mailto:High@L4.1]High@L4.1[/url]
Параметр CABAC формата : Да
Параметр ReFrames формата : 2 кадра
Режим смешивания : Header stripping
Идентификатор кодека : V_MPEG4/ISO/AVC
Продолжительность : 1 ч. 40 м.
Вид битрейта : Переменный
Битрейт : 28,3 Мбит/сек
Ширина : 1920 пикселей
Высота : 1080 пикселей
Соотношение сторон : 16:9
Режим частоты кадров : Постоянный
Частота кадров : 23,976 кадра/сек
Цветовое пространство : YUV
Субдискретизация насыщенности : 4:2:0
Битовая глубина : 8 бит
Тип развёртки : Прогрессивная
Бит/(Пиксели*Кадры) : 0.570
Размер потока : 19,8 Гбайт (80%)
Заголовок : Resident Evil - Damnation / Обитель зла - Проклятие
Язык : English
Default : Да
Forced : Нет
Аудио #1
Идентификатор : 2
Формат : DTS
Формат/Информация : Digital Theater Systems
Профиль формата : MA / Core
Режим смешивания : Header stripping
Идентификатор кодека : A_DTS
Продолжительность : 1 ч. 40 м.
Вид битрейта : Переменный
Битрейт : 1561 Кбит/сек / 1510 Кбит/сек
Каналы : 6 каналов
Расположение каналов : Front: L C R, Side: L R, LFE
Частота : 48,0 КГц
Битовая глубина : 16 бит
Метод сжатия : Без потерь / Lossy
Заголовок : DTS 6ch, 2302 kbps (Русский, профессиональный многоголосый закадровый)
Язык : Russian
Default : Да
Forced : Нет
Аудио #2
Идентификатор : 3
Формат : DTS
Формат/Информация : Digital Theater Systems
Профиль формата : MA / Core
Режим смешивания : Header stripping
Идентификатор кодека : A_DTS
Продолжительность : 1 ч. 40 м.
Вид битрейта : Переменный
Битрейт : 2053 Кбит/сек / 1510 Кбит/сек
Каналы : 6 каналов
Расположение каналов : Front: L C R, Side: L R, LFE
Частота : 48,0 КГц
Битовая глубина : 16 бит
Метод сжатия : Без потерь / Lossy
Заголовок : DTS 6ch, 2298 kbps (Английский)
Язык : English
Default : Нет
Forced : Нет
Аудио #3
Идентификатор : 4
Формат : AC-3
Формат/Информация : Audio Coding 3
Расширение режима : CM (complete main)
Параметр Endianness формата : Big
Режим смешивания : Header stripping
Идентификатор кодека : A_AC3
Продолжительность : 1 ч. 40 м.
Вид битрейта : Постоянный
Битрейт : 640 Кбит/сек
Каналы : 6 каналов
Расположение каналов : Front: L C R, Side: L R, LFE
Частота : 48,0 КГц
Битовая глубина : 16 бит
Метод сжатия : С потерями
Размер потока : 458 Мбайт (2%)
Заголовок : AC3 6ch, 640 kbps (Турецкий)
Язык : Turkish
Default : Нет
Forced : Нет
Аудио #4
Идентификатор : 5
Формат : AC-3
Формат/Информация : Audio Coding 3
Расширение режима : CM (complete main)
Параметр Endianness формата : Big
Режим смешивания : Header stripping
Идентификатор кодека : A_AC3
Продолжительность : 1 ч. 40 м.
Вид битрейта : Постоянный
Битрейт : 640 Кбит/сек
Каналы : 6 каналов
Расположение каналов : Front: L C R, Side: L R, LFE
Частота : 48,0 КГц
Битовая глубина : 16 бит
Метод сжатия : С потерями
Размер потока : 458 Мбайт (2%)
Заголовок : AC3 6ch, 640 kbps (Польский)
Язык : Polish
Default : Нет
Forced : Нет
Аудио #5
Идентификатор : 6
Формат : AC-3
Формат/Информация : Audio Coding 3
Расширение режима : CM (complete main)
Параметр Endianness формата : Big
Режим смешивания : Header stripping
Идентификатор кодека : A_AC3
Продолжительность : 1 ч. 40 м.
Вид битрейта : Постоянный
Битрейт : 640 Кбит/сек
Каналы : 6 каналов
Расположение каналов : Front: L C R, Side: L R, LFE
Частота : 48,0 КГц
Битовая глубина : 16 бит
Метод сжатия : С потерями
Размер потока : 458 Мбайт (2%)
Заголовок : AC3 6ch, 640 kbps (Венгерский)
Язык : Hungarian
Default : Нет
Forced : Нет
Аудио #6
Идентификатор : 7
Формат : AC-3
Формат/Информация : Audio Coding 3
Расширение режима : CM (complete main)
Параметр Endianness формата : Big
Режим смешивания : Header stripping
Идентификатор кодека : A_AC3
Продолжительность : 1 ч. 40 м.
Вид битрейта : Постоянный
Битрейт : 640 Кбит/сек
Каналы : 6 каналов
Расположение каналов : Front: L C R, Side: L R, LFE
Частота : 48,0 КГц
Битовая глубина : 16 бит
Метод сжатия : С потерями
Размер потока : 458 Мбайт (2%)
Заголовок : AC3 6ch, 640 kbps (Чешский)
Язык : Czech
Default : Нет
Forced : Нет
Текст #1
Идентификатор : 8
Формат : UTF-8
Идентификатор кодека : S_TEXT/UTF8
Идентификатор кодека/Информация : UTF-8 Plain Text
Язык : Russian
Default : Нет
Forced : Нет
Текст #2
Идентификатор : 9
Формат : UTF-8
Идентификатор кодека : S_TEXT/UTF8
Идентификатор кодека/Информация : UTF-8 Plain Text
Язык : English
Default : Нет
Forced : Нет
Текст #3
Идентификатор : 10
Формат : UTF-8
Идентификатор кодека : S_TEXT/UTF8
Идентификатор кодека/Информация : UTF-8 Plain Text
Язык : Ukrainian
Default : Нет
Forced : Нет
-

Скриншоты

-Resident evil / Обитель злаResident Evil 2 - Apocalypse / Обитель зла 2 - АпокалипсисResident Evil 2 - Apocalypse (Extended version) / Обитель зла 2 - Апокалипсис (Расширенная версия)Resident Evil 3 - Extinction / Обитель зла 3 - ВымираниеResident Evil 4 - Afterlife / Обитель зла 4 - Жизнь после смертиResident Evil 5 - Retribution / Обитель Зла 5 - Возмездие-Resident Evil - Degeneration / Обитель зла - ВырождениеResident Evil - Damnation / Обитель зла - ПроклятиеResident Evil - 4D Executer / Обитель Зла - 4D Палач / Исполнитель

_________________
Показать сообщения:    

Текущее время: Сегодня 10:45

Часовой пояс: GMT



Вы не можете начинать темы
Вы не можете отвечать на сообщения
Вы не можете редактировать свои сообщения
Вы не можете удалять свои сообщения
Вы не можете голосовать в опросах
Вы не можете прикреплять файлы к сообщениям
Вы не можете скачивать файлы