Ивановский Торрент трекер
Яндекс.Погода
 

[Quote]
HUNTER

Реальные пацаны
Год выпуска: 2020
Производство: Гуд Стори Медиа
Жанр: комедия
Продолжительность: 00:25:41
Субтитры: нет
Режиссёр: Жанна Кадникова
В ролях: Николай Наумов, Зоя Бербер, Владимир Селиванов, Станислав Тляшев, Мария Скорницкая, Валентина Мазунина, Марина Федункив, Армен Бежанян, Игорь Ознобихин, Алексей Базанов, Анастасия Плоскова, Сергей Ершов, Татьяна Ронзина, Любовь Рудометова, Юлия Гришнина, Михаил Чуднов, Юрий Богомолов, Василий Бичев, Анна Шепелева
Описание: В новом сезоне Коляну выпадет шанс стать по-настоящему богатым, но для этого ему придется попотеть в прямом смысле слова. Предыдущий сезон заканчивается тем, что яхта Обориных попадает в шторм, спасатели находят лишь обломки. На самом деле они выплыли на тропический остров и выжили, но были объявлены погибшими. По завещанию оказывается, что Колян является единственным наследником всего имущества Иваныча, а это 420 миллионов долларов. Колян может получить наследство, но есть проблема – вступить в права наследования он сможет, только завоевав чемпионский пояс по смешанным единоборствам MMA. Коля полон решимости стать чемпионом и начинает усиленные тренировки при поддержке друзей. На пути к победе постоянно возникают сложности, но Колян твердо намерен унаследовать миллионы Иваныча. Эдик станет коллектором, полицейские Базанов и Ознобихин придумают новый способ борьбы с преступностью «на районе», а Вован и Валя будут продолжать сходить с ума, воспитывая тройню.
Доп. информация:
Реклама: Нет
Сэмпл: http://multi-up.com/1264262
Качество: WEBRip - 25Kuzmich
Формат: AVI
Видео кодек: XviD
Аудио кодек: AC3
Видео: XviD build 73, 720x400 (1.80:1), 25 fps, 1705 kbps, 0.24 bit/pixel
Аудио: AC3 Dolby Digital, 48 kHz, 2/0 (L,R) ch, 192 kbps

MediaInfo

Общее
Полное имя : D:\Сериалы\Realnye.pacany.S12.WEB-DLRip.25Kuzmich\Realnye.pacany.S12.E01.WEB-DLRip.25Kuzmich.avi
Формат : AVI
Формат/Информация : Audio Video Interleave
Размер файла : 351 Мбайт
Продолжительность : 25 м. 41 с.
Общий поток : 1 908 Кбит/сек
Программа кодирования : VirtualDubMod 1.5.10.3 | www.virtualdub-fr.org || (build 2550/release)
Библиотека кодирования : VirtualDubMod build 2550/release
Видео
Идентификатор : 0
Формат : MPEG-4 Visual
Профиль формата : Advanced [email protected]
Настройки формата : BVOP1
Параметр BVOP формата : 1
Параметр QPel формата : Нет
Параметр GMC формата : Без точки перехода
Параметр матрицы формата : Default (MPEG)
Идентификатор кодека : XVID
Идентификатор кодека/Подсказка : XviD
Продолжительность : 25 м. 41 с.
Битрейт : 1 706 Кбит/сек
Ширина : 720 пикселей
Высота : 400 пикселей
Соотношение сторон : 16:9
Частота кадров : 25,000 кадров/сек
Цветовое пространство : YUV
Субдискретизация насыщенности : 4:2:0
Битовая глубина : 8 бит
Тип развёртки : Прогрессивная
Метод сжатия : С потерями
Бит/(Пиксели*Кадры) : 0.237
Размер потока : 313 Мбайт (89%)
Библиотека кодирования : XviD 73
Аудио
Идентификатор : 1
Формат : AC-3
Формат/Информация : Audio Coding 3
Коммерческое название : Dolby Digital
Идентификатор кодека : 2000
Продолжительность : 25 м. 41 с.
Вид битрейта : Постоянный
Битрейт : 192 Кбит/сек
Каналы : 2 канала
Channel layout : L R
Частота : 48,0 КГц
Частота кадров : 31,250 кадров/сек (1536 SPF)
Метод сжатия : С потерями
Размер потока : 35,3 Мбайт (10%)
Выравнивание : Разделение по промежуткам
Продолжительность промежутка : 40 мс. (1,00 видеокадр)
Время предзагрузки промежутка : 500 мс.
Service kind : Complete Main

Скриншоты

Предыдущие и альтернативные раздачи


Display posts:    

Current time is: 11-Jul 10:57

All times are UTC ± 0


You cannot post new topics in this forum
You cannot reply to topics in this forum
You cannot edit your posts in this forum
You cannot delete your posts in this forum
You cannot vote in polls in this forum
You cannot attach files in this forum
You cannot download files in this forum

!ATTENTION!
The site does not give electronic versions of products, and is engaged only in a collecting and cataloguing of the references sent and published at a forum by our readers. If you are the legal owner of any submitted material and do not wish that the reference to it was in our catalogue, contact us and we shall immediately remove her. Files for an exchange on tracker are given by users of a site, and the administration does not bear the responsibility for their maintenance. The request to not fill in the files protected by copyrights, and also files of the illegal maintenance!