Ивановский Торрент трекер
Яндекс.Погода
DL-List and Torrent activity
None
 
     
 
 

[Quote]
HUNTER

Реальная белка 2 / The Nut Job 2: Nutty by Nature
Страна: Канада, Корея Южная, США
Жанр: мультфильм, комедия, приключения, семейный
Продолжительность: 01:31:13
Год выпуска: 2017
Перевод: Профессиональный (дублированный)
Оригинальная аудиодорожка: Английский
Русские субтитры: Есть--Режиссёр: Кэллан Брункер / Callan Brunker--Роли озвучивали: Уилл Арнетт, Кэтрин Хейгл, Майя Рудольф, Джеки Чан, Изабела Монер, Петер Стормаре, Бобби Каннавейл, Бобби Мойнахан, Джефф Данэм, Габриэль Иглесиас...--Описание: В продолжении веселых хвостатых приключений белке Злюку и его друзьям снова нужно действовать сообща. На сей раз — чтобы спасти свой дом: мэр города задумал вырубить их парк и построить на его месте бездушные аттракционы... К счастью, у Злюка и других любителей арахиса есть план, не последняя роль в котором отведена новым друзьям наших героев — белым мышам под предводительством мудрого мистера Фэнга.--Доп. информация: | IMDB | КиноПоиск | Сэмпл | --Качество: BDRip-AVC The Nut Job 2: Nutty by Nature. 2017. BDRemux.1080p. NNMClub
Формат: MKV
Видео: AVC, 756x408 (1.85:1), 1018 kbps, 23.976 fps, 0.138 bit/pixel
Аудио 1: AАС-HE, 48.0 KHz, 64 Kbps, 2 channels.
Аудио 2: AАС-HE, 48.0 KHz, 64 Kbps, 2 channels.
Субтитры: Русские (Полные), Английские (Full, SDH, SDH-Colored)

Скриншоты

Подробные технические данные

x264

raw [info]: 756x408p 1:1 @ 24000/1001 fps (cfr)
x264 [info]: using SAR=1/1
x264 [info]: using cpu capabilities: MMX2 SSE2Fast SSSE3 SSE4.2 AVX
x264 [info]: profile High, level 4.1
x264 [info]: frame I:1000 Avg QP:17.33 size: 51212
x264 [info]: frame P:33328 Avg QP:21.57 size: 10331
x264 [info]: frame B:96900 Avg QP:23.11 size: 3103
x264 [info]: consecutive B-frames: 3.0% 4.3% 16.1% 31.4% 15.9% 23.9% 2.0% 1.3% 0.6% 0.4% 0.2% 0.2% 0.1% 0.1% 0.1% 0.3%
x264 [info]: mb I I16..4: 8.5% 61.4% 30.1%
x264 [info]: mb P I16..4: 2.2% 13.7% 2.5% P16..4: 31.8% 15.7% 10.6% 0.0% 0.0% skip:23.5%
x264 [info]: mb B I16..4: 0.3% 1.7% 0.3% B16..8: 27.2% 7.7% 2.6% direct: 3.4% skip:56.7% L0:41.3% L1:44.8% BI:13.9%
x264 [info]: 8x8 transform intra:72.4% inter:64.8%
x264 [info]: direct mvs spatial:95.3% temporal:4.7%
x264 [info]: coded y,uvDC,uvAC intra: 73.1% 81.4% 53.2% inter: 13.8% 14.6% 6.7%
x264 [info]: i16 v,h,dc,p: 16% 25% 7% 51%
x264 [info]: i8 v,h,dc,ddl,ddr,vr,hd,vl,hu: 12% 14% 6% 8% 11% 11% 13% 10% 14%
x264 [info]: i4 v,h,dc,ddl,ddr,vr,hd,vl,hu: 11% 18% 4% 7% 13% 11% 13% 9% 13%
x264 [info]: i8c dc,h,v,p: 31% 30% 17% 21%
x264 [info]: Weighted P-Frames: Y:4.6% UV:3.3%
x264 [info]: ref P L0: 55.9% 12.7% 11.8% 5.6% 3.8% 2.9% 2.3% 1.3% 1.0% 0.9% 0.7% 0.6% 0.5% 0.0% 0.0%
x264 [info]: ref B L0: 77.5% 11.0% 4.6% 2.1% 1.4% 1.1% 0.8% 0.5% 0.4% 0.3% 0.2% 0.1%
x264 [info]: ref B L1: 95.1% 4.9%
x264 [info]: kb/s:1017.68
General
Unique ID : 232929668412987179206424479323655948403 (0xAF3C9F513BCC5B4881EA62D79C5AC873)
Complete name : The Nut Job 2.mkv
Format : Matroska
Format version : Version 4 / Version 2
File size : 748 MiB
Duration : 1 h 31 min
Overall bit rate : 1 145 kb/s
Movie name : Реальная белка 2 / The Nut Job 2: Nutty by Nature (2017)
Encoded date : UTC 2018-01-15 23:01:15
Writing application : mkvmerge v8.1.0 ('Psychedelic Postcard') 64bit
Writing library : libebml v1.3.1 + libmatroska v1.4.2
Cover : Yes
Attachments : cover.jpg
Video
ID : 1
Format : AVC
Format/Info : Advanced Video Codec
Format profile : High@L4.1
Format settings : CABAC / 13 Ref Frames
Format settings, CABAC : Yes
Format settings, ReFrames : 13 frames
Codec ID : V_MPEG4/ISO/AVC
Duration : 1 h 31 min
Bit rate : 1 018 kb/s
Width : 756 pixels
Height : 408 pixels
Display aspect ratio : 1.85:1
Frame rate mode : Constant
Frame rate : 23.976 (24000/1001) FPS
Color space : YUV
Chroma subsampling : 4:2:0
Bit depth : 8 bits
Scan type : Progressive
Bits/(Pixel*Frame) : 0.138
Stream size : 664 MiB (89%)
Title : The Nut Job 2: Nutty by Natur (2017) By optik.1557
Writing library : x264 core 152 r2851kMod ba24899
Encoding settings : cabac=1 / ref=13 / deblock=1:-2:-1 / analyse=0x3:0x113 / me=umh / subme=10 / psy=1 / fade_compensate=0.00 / psy_rd=1.03:0.19 / mixed_ref=1 / me_range=48 / chroma_me=1 / trellis=2 / 8x8dct=1 / cqm=0 / deadzone=21,11 / fast_pskip=0 / chroma_qp_offset=-3 / threads=6 / lookahead_threads=1 / sliced_threads=0 / nr=0 / decimate=0 / interlaced=0 / bluray_compat=0 / constrained_intra=0 / bframes=15 / b_pyramid=2 / b_adapt=2 / b_bias=0 / direct=3 / weightb=1 / open_gop=0 / weightp=2 / keyint=250 / keyint_min=23 / scenecut=40 / intra_refresh=0 / rc_lookahead=60 / rc=2pass / mbtree=0 / bitrate=1018 / ratetol=1.0 / qcomp=0.60 / qpmin=0 / qpmax=69 / qpstep=4 / cplxblur=20.0 / qblur=0.5 / vbv_maxrate=50000 / vbv_bufsize=62500 / nal_hrd=none / filler=0 / ip_ratio=1.40 / pb_ratio=1.30 / aq=3:0.85
Language : English
Default : Yes
Forced : No
Audio #1
ID : 2
Format : AAC
Format/Info : Advanced Audio Codec
Format profile : HE-AAC / LC
Format settings : Explicit
Codec ID : A_AAC-2
Duration : 1 h 31 min
Bit rate : 62.7 kb/s
Channel(s) : 2 channels
Channel positions : Front: L R
Sampling rate : 48.0 kHz / 24.0 kHz
Frame rate : 23.438 FPS (1024 SPF)
Compression mode : Lossy
Stream size : 40.9 MiB (5%)
Title : Дубляж
Language : Russian
Default : Yes
Forced : No
Audio #2
ID : 3
Format : AAC
Format/Info : Advanced Audio Codec
Format profile : HE-AAC / LC
Format settings : Explicit
Codec ID : A_AAC-2
Duration : 1 h 31 min
Bit rate : 62.7 kb/s
Channel(s) : 2 channels
Channel(s)_Original : 6 channels
Channel positions : , Back: 5, LFE
Sampling rate : 48.0 kHz / 24.0 kHz
Frame rate : 23.438 FPS (1024 SPF)
Compression mode : Lossy
Stream size : 40.9 MiB (5%)
Title : Original
Language : English
Default : No
Forced : No
Text #1
ID : 4
Format : UTF-8
Codec ID : S_TEXT/UTF8
Codec ID/Info : UTF-8 Plain Text
Duration : 1 h 22 min
Bit rate : 89 b/s
Count of elements : 1742
Stream size : 54.6 KiB (0%)
Title : Полные
Language : Russian
Default : No
Forced : No
Text #2
ID : 5
Format : UTF-8
Codec ID : S_TEXT/UTF8
Codec ID/Info : UTF-8 Plain Text
Duration : 1 h 22 min
Bit rate : 66 b/s
Count of elements : 1450
Stream size : 40.3 KiB (0%)
Title : Full
Language : English
Default : No
Forced : No
Text #3
ID : 6
Format : UTF-8
Codec ID : S_TEXT/UTF8
Codec ID/Info : UTF-8 Plain Text
Duration : 1 h 29 min
Bit rate : 72 b/s
Count of elements : 1767
Stream size : 47.6 KiB (0%)
Title : SDH
Language : English
Default : No
Forced : No
Text #4
ID : 7
Format : UTF-8
Codec ID : S_TEXT/UTF8
Codec ID/Info : UTF-8 Plain Text
Duration : 1 h 30 min
Bit rate : 138 b/s
Count of elements : 1667
Stream size : 91.6 KiB (0%)
Title : SDH-Colored
Language : English
Default : No
Forced : No
Menu
00:00:00.000 : en:1
00:09:27.000 : en:2
00:19:44.000 : en:3
00:28:20.000 : en:4
00:36:35.000 : en:5
00:47:52.000 : en:6
00:58:57.000 : en:7
01:06:56.000 : en:8
01:16:29.000 : en:9
01:27:54.000 : en:10


Display posts:    

Current time is: 25-Jun 07:39

All times are UTC ± 0


You cannot post new topics in this forum
You cannot reply to topics in this forum
You cannot edit your posts in this forum
You cannot delete your posts in this forum
You cannot vote in polls in this forum
You cannot attach files in this forum
You cannot download files in this forum

!ATTENTION!
The site does not give electronic versions of products, and is engaged only in a collecting and cataloguing of the references sent and published at a forum by our readers. If you are the legal owner of any submitted material and do not wish that the reference to it was in our catalogue, contact us and we shall immediately remove her. Files for an exchange on tracker are given by users of a site, and the administration does not bear the responsibility for their maintenance. The request to not fill in the files protected by copyrights, and also files of the illegal maintenance!