Ивановский Торрент трекер
Яндекс.Погода
DL-List and Torrent activity
Size:  5.41 GB   |    Registered:  4 years 5 months   |    Completed:  0 times
DL-List: None

Seeder not seen: Never

 
     
 
 
 

[Quote]
HUNTER

Разрешите вас прикончить? / May I Kill U? Страна: Великобритания
Жанр: триллер, комедия
Год выпуска: 2012
Продолжительность: 01:23:43
Перевод: Профессиональный (многоголосый закадровый)
Cубтитры: нет
Режиссер: Стюарт Урбан / Stuart Urban
В ролях: Кевин Бишоп, Джек Дулан, Фрэнсис Барбер, Хейли-Мари Экс, Катажина Колечек, Розмари Лич, Али Крэйг...
Описание: Британская черная комедия, возникшая на фоне недавних беспорядков в Лондоне и рассказывающая историю патрульного полицейского, одержимого буйными идеями. В компании с камерой на своём шлеме он крутит педали велосипеда вперёд, в поисках славы и возмездия — с веселыми и очень разрушительными последствиями.
Сэмпл: http://rusfolder.com/42243270

Тип релиза: HDTV 1080i
Контейнер: TS
Видео: AVC/H.264, PAL, 1920х1080 (16:9), 25 fps, 8603 Kbps
Аудио: русский, MP-2, 48000 Hz, 192 Кбит/сек, 2 ch

MediaInfo

Общее
Идентификатор : 1 (0x1)
Полное имя : D:\Разрешите вас прикончить.ts
Формат : MPEG-TS
Размер файла : 5,41 Гбайт
Продолжительность : 1 ч. 23 м.
Режим общего битрейта : Переменный
Общий поток : 9254 Кбит/сек
Максимальный общий битрейт : 35,5 Мбит/сек
Видео
Идентификатор : 4113 (0x1011)
Идентификатор меню : 1 (0x1)
Формат : AVC
Формат/Информация : Advanced Video Codec
Профиль формата : Main@L4.0
Параметр CABAC формата : Да
Параметр ReFrames формата : 3 кадра
Идентификатор кодека : 27
Продолжительность : 1 ч. 23 м.
Вид битрейта : Переменный
Битрейт : 8603 Кбит/сек
Максимальный битрейт : 40,0 Мбит/сек
Ширина : 1920 пикселей
Высота : 1080 пикселей
Соотношение сторон : 16:9
Частота кадров : 25,000 кадров/сек
Стандарт вещания : Component
Цветовое пространство : YUV
Субдискретизация насыщенности : 4:2:0
Битовая глубина : 8 бит
Тип развёртки : Чересстрочная
Порядок развёртки : Верхнее поле первое
Бит/(Пиксели*Кадры) : 0.166
Размер потока : 5,03 Гбайт (93%)
Аудио
Идентификатор : 4352 (0x1100)
Идентификатор меню : 1 (0x1)
Формат : MPEG Audio
Версия формата : Version 1
Профиль формата : Layer 2
Идентификатор кодека : 4
Продолжительность : 1 ч. 23 м.
Вид битрейта : Постоянный
Битрейт : 192 Кбит/сек
Каналы : 2 канала
Частота : 48,0 КГц
Метод сжатия : С потерями
Размер потока : 115 Мбайт (2%)
Язык : Russian

Скриншот c названием фильма

Скриншоты

[iv-torrents.ru].t36839.torrent
Torrent: Registered [ 2014-11-16 21:32 ] · 16B830AD1595EAA04BBEBAE6BACB8D3AAD807F44

Download .torrent

Download

28 KB

Status: checked
Completed: 0 times
Size: 5.41 GB
terms.php


Quick Reply

Name:

               
       
     
Heads necessary to send messages to enable JavaScript
Display posts:    

Current time is: 22-Apr 14:49

All times are UTC ± 0


You can post new topics in this forum
You can reply to topics in this forum
You cannot edit your posts in this forum
You cannot delete your posts in this forum
You cannot vote in polls in this forum
You cannot attach files in this forum
You can download files in this forum

!ATTENTION!
The site does not give electronic versions of products, and is engaged only in a collecting and cataloguing of the references sent and published at a forum by our readers. If you are the legal owner of any submitted material and do not wish that the reference to it was in our catalogue, contact us and we shall immediately remove her. Files for an exchange on tracker are given by users of a site, and the administration does not bear the responsibility for their maintenance. The request to not fill in the files protected by copyrights, and also files of the illegal maintenance!