Ивановский Торрент трекер
Яндекс.Погода
 

[Quote]
HUNTER

Раздолбай
Страна: Россия
Студия: Argo Film
Жанр: Боевик, комедия
Год выпуска: 2011
Продолжительность: 01:20:46
Перевод: Не требуется
Субтитры: нет
Оригинальная аудио дорожка: Русский
Режиссёр: Валерий Ибрагимов
В ролях: Николай Кудряшов, Юлия Куваева, Олег Сидоров, Филипп Величко, Евгений Савчук, Валерий Ибрагимов, Петр Капица, Николай Калмыков, Евгений Маканов, Сергей Куваев, Анатолий Карнаухов, Сергей Козновский, Сергей Синцов, Дмитрий Бекман, Георгий Гашокин
Описание: Она владелица собственного бизнеса, амбициозна, самодостаточна и не замужем. Ее компания участвует в тендере за лакомый кусок земли. Столкнувшись с конкурентами, она ищет себе надежную охрану. Он водитель и охранник, хороший парень, но ему нельзя доверить никаких поручений, потому что главный герой… раздолбай. В разгар перепетий когда угрожает опасность именно он приходит ей на помощь.
Доп. информация:
Автор релиза -
Источник аудио и видео - HDTV 1080i TS - моя запись с канала Наш Детектив HD


Сэмпл: https://yadi.sk/i/nwB1nk513SGHmV
Рекламы нет!
Качество видео: HDTV 1080i
Формат видео: TS
Видео: MPEG-4, 1920x1080 (16:9), 25.000 fps, 6978 kbps, 0.135 bit/pixel
Аудио 1: Русский MP2, 48000 Гц, 2ch, 192 kbps
Аудио 2: Русский AC3, 48000 Гц, 6ch, 448 kbps

MediaInfo

Общее
Идентификатор : 1 (0x1)
Полное имя : D:\Раздолбай.2011.HDTV.1080i-ylnian.ts
Формат : MPEG-TS
Размер файла : 4,52 Гбайт
Продолжительность : 1 ч. 20 м.
Режим общего битрейта : Переменный
Общий поток : 8021 Кбит/сек
Видео
Идентификатор : 3531 (0xDCB)
Идентификатор меню : 17013 (0x4275)
Формат : AVC
Формат/Информация : Advanced Video Codec
Профиль формата : [email protected]
Настройки формата : CABAC / 3 Ref Frames
Параметр CABAC формата : Да
Параметр RefFrames формата : 3 кадра
Идентификатор кодека : 27
Продолжительность : 1 ч. 20 м.
Битрейт : 6978 Кбит/сек
Ширина : 1920 пикселей
Высота : 1080 пикселей
Соотношение сторон : 16:9
Частота кадров : 25,000 кадров/сек
Стандарт вещания : Component
Цветовое пространство : YUV
Субдискретизация насыщенности : 4:2:0
Битовая глубина : 8 бит
Тип развёртки : Чересстрочная
Метод сохранения типа развёртки : Раздельные поля
Порядок развёртки : Верхнее поле первое
Бит/(Пиксели*Кадры) : 0.135
Размер потока : 3,94 Гбайт (87%)
Цветовой диапазон : Limited
Основные цвета : BT.709
Характеристики трансфера : BT.709
Коэффициенты матрицы : BT.709
Аудио #1
Идентификатор : 3532 (0xDCC)
Идентификатор меню : 17013 (0x4275)
Формат : MPEG Audio
Версия формата : Version 1
Профиль формата : Layer 2
Идентификатор кодека : 3
Продолжительность : 1 ч. 20 м.
Вид битрейта : Постоянный
Битрейт : 192 Кбит/сек
Каналы : 2 канала
Частота : 48,0 КГц
Частота кадров : 41,667 кадра/сек (1152 SPF)
Метод сжатия : С потерями
Задержка видео : -80 мс.
Размер потока : 111 Мбайт (2%)
Язык : Russian
Аудио #2
Идентификатор : 3533 (0xDCD)
Идентификатор меню : 17013 (0x4275)
Формат : AC-3
Формат/Информация : Audio Coding 3
Идентификатор кодека : 6
Продолжительность : 1 ч. 20 м.
Вид битрейта : Постоянный
Битрейт : 448 Кбит/сек
Каналы : 6 каналов
Расположение каналов : Front: L C R, Side: L R, LFE
Частота : 48,0 КГц
Частота кадров : 31,250 кадров/сек (1536 SPF)
Битовая глубина : 16 бит
Метод сжатия : С потерями
Задержка видео : -80 мс.
Размер потока : 259 Мбайт (6%)
Язык : Russian
ServiceKind/String : Complete Main

Сравнение

Сравнение скриншотов с DVD9 - в моём релизе выше чёткость и резкость:
DVD-9 --->>> HDTV
--->>>
--->>>
--->>>
--->>>
--->>>
--->>>


Display posts:    

Current time is: 07-Jul 06:53

All times are UTC ± 0


You cannot post new topics in this forum
You cannot reply to topics in this forum
You cannot edit your posts in this forum
You cannot delete your posts in this forum
You cannot vote in polls in this forum
You cannot attach files in this forum
You cannot download files in this forum

!ATTENTION!
The site does not give electronic versions of products, and is engaged only in a collecting and cataloguing of the references sent and published at a forum by our readers. If you are the legal owner of any submitted material and do not wish that the reference to it was in our catalogue, contact us and we shall immediately remove her. Files for an exchange on tracker are given by users of a site, and the administration does not bear the responsibility for their maintenance. The request to not fill in the files protected by copyrights, and also files of the illegal maintenance!