Важное объявление!
У Нас Все раздачи мультитрекерные, при нуле пиров в релизах, можете смело вставать на закачку!
 
Автор Сообщение

HUNTER

Стаж:
4 года 4 месяца
Сообщений:
56822

Репутация: 101

[+] [-]
Вне форума [Профиль] [ЛС]

Little Big / Funeral Rave
Жанр: Rave
Носитель: CD
Страна-производитель диска (релиза): Россия
Год издания: 2015
Издатель (лейбл): Self-released
Страна исполнителя (группы): Россия
Аудиокодек: FLAC (*.flac)
Тип рипа: image+.cue
Битрейт аудио: lossless
Продолжительность: 43:34
Источник (релизер): Собственный диск
Наличие сканов в содержимом раздачи: да
Треклист:
01. To Party
02. Brighton Beach
03. Give Me Your Money (feat. Tommy Cash)
04. The Sign
05. Big Dick
06. Fucking Asshole
07. Kind Inside, Hard Outside
08. Dead Unicorn
09. Hateful Love
10. Funeral Rave
11. Polyushko Polye

Лог создания рипа

Exact Audio Copy V1.1 from 23. June 2015
Отчёт EAC об извлечении, выполненном 27. июня 2016, 21:35
Little Big / Funeral Rave
Дисковод: TSSTcorpCDDVDW SN-208BB Adapter: 1 ID: 0
Режим чтения : ДостоверностьИспользование точного потока : ДаОтключение кэша аудио : ДаИспользование указателей C2 : Нет
Коррекция смещения при чтении : 6Способность читать области Lead-in и Lead-out : НетЗаполнение пропущенных сэмплов тишиной : ДаУдаление блоков с тишиной в начале и конце : НетПри вычислениях CRC использовались нулевые сэмплы : ДаИнтерфейс : Встроенный Win32-интерфейс для Win NT/2000
Выходной формат : Пользовательский кодировщикВыбранный битрейт : 128 kBit/sКачество : ВысокийДобавление ID3-тега : НетУтилита сжатия : C:\Program Files (x86)\Exact Audio Copy\Flac\flac.exeДополнительные параметры : -V -8 -T "Date=%year%" -T "Genre=%genre%" %source%
TOC извлечённого CD
Трек | Старт | Длительность | Начальный сектор | Конечный сектор --------------------------------------------------------------------- 1 | 0:00.00 | 4:14.54 | 0 | 19103 2 | 4:14.54 | 3:25.00 | 19104 | 34478 3 | 7:39.54 | 3:19.45 | 34479 | 49448 4 | 10:59.24 | 5:06.27 | 49449 | 72425 5 | 16:05.51 | 2:42.00 | 72426 | 84575 6 | 18:47.51 | 3:08.37 | 84576 | 98712 7 | 21:56.13 | 4:36.60 | 98713 | 119472 8 | 26:32.73 | 4:37.30 | 119473 | 140277 9 | 31:10.28 | 3:25.25 | 140278 | 155677 10 | 34:35.53 | 4:09.70 | 155678 | 174422 11 | 38:45.48 | 4:48.07 | 174423 | 196029
Характеристики диапазона извлечения и сообщения об ошибках
Выбранный диапазон
Имя файла C:\Users\1\Desktop\Little Big - 2015 - Funeral Rave.wav
Пиковый уровень 97.7 % Скорость извлечения 1.9 X Качество диапазона 100.0 % CRC теста 71F014F7 CRC копии 71F014F7 Копирование... OK
Ошибок не произошло
AccurateRip: сводка
Трек 1 отсутствует в базе данныхТрек 2 отсутствует в базе данныхТрек 3 отсутствует в базе данныхТрек 4 отсутствует в базе данныхТрек 5 отсутствует в базе данныхТрек 6 отсутствует в базе данныхТрек 7 отсутствует в базе данныхТрек 8 отсутствует в базе данныхТрек 9 отсутствует в базе данныхТрек 10 отсутствует в базе данныхТрек 11 отсутствует в базе данных
Ни одного трека нет в базе AccurateRip
Конец отчёта
==== Контрольная сумма отчёта DE76AC412ED5750A465F1FDF08B26C833A50E06400D3573AC2F4153EFFEEC158 ====

Содержание индексной карты (.CUE)

REM DATE 2015REM DISCID 9A0A350BREM COMMENT "ExactAudioCopy v1.1"PERFORMER "Little Big"TITLE "Funeral Rave"FILE "Little Big - 2015 - Funeral Rave.flac" WAVE TRACK 01 AUDIO TITLE "To Party" PERFORMER "Little Big" INDEX 01 00:00:00 TRACK 02 AUDIO TITLE "Brighton Beach" PERFORMER "Little Big" INDEX 01 04:14:54 TRACK 03 AUDIO TITLE "Give Me Your Money" PERFORMER "Little Big" INDEX 01 07:39:54 TRACK 04 AUDIO TITLE "The Sign" PERFORMER "Little Big" INDEX 01 10:59:24 TRACK 05 AUDIO TITLE "Big Dick" PERFORMER "Little Big" INDEX 01 16:05:51 TRACK 06 AUDIO TITLE "Fucking Asshole" PERFORMER "Little Big" INDEX 01 18:47:51 TRACK 07 AUDIO TITLE "Kind Inside Hard Outside" PERFORMER "Little Big" INDEX 01 21:56:13 TRACK 08 AUDIO TITLE "Dead Unicorn" PERFORMER "Little Big" INDEX 01 26:32:73 TRACK 09 AUDIO TITLE "Hateful Love" PERFORMER "Little Big" INDEX 01 31:10:28 TRACK 10 AUDIO TITLE "Funeral Rave" PERFORMER "Little Big" INDEX 01 34:35:53 TRACK 11 AUDIO TITLE "Polyushko Polye" PERFORMER "Little Big" INDEX 01 38:45:48

_________________
Показать сообщения:    

Текущее время: Сегодня 20:40

Часовой пояс: GMT



Вы не можете начинать темы
Вы не можете отвечать на сообщения
Вы не можете редактировать свои сообщения
Вы не можете удалять свои сообщения
Вы не можете голосовать в опросах
Вы не можете прикреплять файлы к сообщениям
Вы не можете скачивать файлы