Ивановский Торрент трекер
Яндекс.Погода
DL-List and Torrent activity
None
 
     
 
 

[Quote]
HUNTER

Air Crash Investigation / Mayday / Расследования авиакатастроф / сезон 20 (серии 1 из 10)
Год выпуска: 2020
Страна: Канада
Жанр: документальный
Продолжительность: ~ 00:44:00
Перевод: Профессиональный (двухголосый закадровый)
Русские субтитры: нет
Описание: Сериал о наиболее громких и загадочных катастрофах в истории гражданской авиации.
Наиболее полную информацию о сериале можно получить здесь List of Mayday episodes, для фанатов рекомендую именно этот сайт.
Есть русская, более лаконичная версия Список эпизодов телесериала «Расследования авиакатастроф»
Снимался канадской студией Cineflix в партнерстве с Discovery Channel (Canada), Canal D (Canada), and National Geographic Channel (US & International).
Доп. информация: Видеоматериал предоставил StomperX
Сэмпл: https://www.sendspace.com/file/4chelp
Качество: DVB
формат: MPG
Видео: 720х576@1024х576 (1,78:1), 25 fps, mpeg2 ~3182 kbps avg, 0.307 bit/pixel
Аудио 1: Russian (48 KHz, MP2, 2 ch, ~192 Kbps) (двухголосый)
Аудио 2: English (48 KHz, MP2, 2 ch, ~192 Kbps) (двухголосый)
сезон 14 DVB
сезон 15 DVB
сезон 16 DVB
сезон 17 DVB
сезон 18 DVB
сезон 19 DVB
сезон 20 DVB
сезоны 1-15 HDRip (MKV)
сезоны 1-15 HD 720p (MKV)
сезон 19 HD 1080p (MKV)
сезон 20 HD 1080p (MKV)

Список выпусков/серий

20-01. Взрыв при посадке (Explosive Touchdown)

MediaInfo

General
Complete name : G:\КИНО\Air Crash Investigation season 20\20-01. Взрыв при посадке (Explosive Touchdown).mpg
Format : MPEG-PS
File size : 1.10 GiB
Duration : 43 min 26 s
Overall bit rate mode : Variable
Overall bit rate : 3 638 kb/s
Video
ID : 224 (0xE0)
Format : MPEG Video
Format version : Version 2
Format profile : Main@Main
Format settings : CustomMatrix
Format settings, BVOP : No
Format settings, Matrix : Custom
Format settings, GOP : Variable
Format settings, picture st : Frame
Duration : 43 min 26 s
Bit rate mode : Variable
Bit rate : 3 182 kb/s
Maximum bit rate : 3 300 kb/s
Width : 720 pixels
Height : 576 pixels
Display aspect ratio : 16:9
Active Format Description : Full frame 16:9 image
Frame rate : 25.000 FPS
Standard : PAL
Color space : YUV
Chroma subsampling : 4:2:0
Bit depth : 8 bits
Scan type : Interlaced
Scan order : Top Field First
Compression mode : Lossy
Bits/(Pixel*Frame) : 0.307
Time code of first frame : 00:00:00:00
Time code source : Group of pictures header
GOP, Open/Closed : Open
Stream size : 989 MiB (87%)
Audio #1
ID : 192 (0xC0)
Format : MPEG Audio
Format version : Version 1
Format profile : Layer 2
Duration : 43 min 26 s
Bit rate mode : Constant
Bit rate : 192 kb/s
Channel(s) : 2 channels
Sampling rate : 48.0 kHz
Frame rate : 41.667 FPS (1152 SPF)
Compression mode : Lossy
Stream size : 59.7 MiB (5%)
Audio #2
ID : 193 (0xC1)
Format : MPEG Audio
Format version : Version 1
Format profile : Layer 2
Duration : 43 min 26 s
Bit rate mode : Constant
Bit rate : 192 kb/s
Channel(s) : 2 channels
Sampling rate : 48.0 kHz
Frame rate : 41.667 FPS (1152 SPF)
Compression mode : Lossy
Stream size : 59.7 MiB (5%)

Скриншоты

Внимание! Раздача ведётся путём добавления новых выпусков

Внимание! Раздача ведётся путём добавления новых выпусков; при каждом добавлении создаётся новый торрент. Чтобы начать докачку нового выпуска, пользователям необходимо сделать следующее:
(1) остановить скачивание,
(2) удалить старый торрент у себя из клиента (старые серии удалять не надо),
(3) скачать новый торрент и запустить его у себя в клиенте вместо старого, при этом указать клиенту путь в старую папку куда и должно происходить скачивание новых выпусков.
Ваш клиент при этом должен произвести хеширование (проверку) старой папки (если не производит сам - помогите ему сделать это). В результате он будет докачивать только те выпуски, которых у Вас ещё нет. Старые выпуски при этом не удаляются, а продолжают раздаваться!
Eсли Вы уже удалили старые выпуски, то предотвратить их повторную закачку можно, сняв галочки в соответствующих местах при запуске нового торрента. По возможности, желательно не удалять старые выпуски как можно дольше, чтобы релизёр не только продолжал раздавать старые выпуски, но и смог сконцентрироваться на новых.


Display posts:    

Current time is: 25-Feb 00:13

All times are UTC ± 0


You cannot post new topics in this forum
You cannot reply to topics in this forum
You cannot edit your posts in this forum
You cannot delete your posts in this forum
You cannot vote in polls in this forum
You cannot attach files in this forum
You cannot download files in this forum

!ATTENTION!
The site does not give electronic versions of products, and is engaged only in a collecting and cataloguing of the references sent and published at a forum by our readers. If you are the legal owner of any submitted material and do not wish that the reference to it was in our catalogue, contact us and we shall immediately remove her. Files for an exchange on tracker are given by users of a site, and the administration does not bear the responsibility for their maintenance. The request to not fill in the files protected by copyrights, and also files of the illegal maintenance!