Ивановский Торрент трекер
Яндекс.Погода
DL-List and Torrent activity
None
 
     
 
 

[Quote]
HUNTER

Рапунцель. Дорога к мечте
Tangled: Before Ever After
Год выпуска: 2017
Страна: США
Жанр: мультфильм, мюзикл, фэнтези, комедия, приключения, семейный
Продолжительность: 00:55:01
Перевод: Профессиональный (Дублированный)
русские субтитры: нет-Режиссёр: Том Колфилд / Tom Caulfield, Стивен Сандовал / Stephen Sandoval-Роли озвучивали: Закари Левай, Мэнди Мур, Иден Эспиноза, Клэнси Браун, Джули Боуэн, Лаура Бенанти, Джеффри Тэмбор, М. К. Гейни, Шон Хейс, Дидрих Бадер-Описание: Прошло полгода после того, как Рапунцель вновь обрела родителей и узнала, что она — принцесса. Совсем скоро должна состояться её коронация, но девушка понимает, что она ещё к этому не готова. Природная любознательность и желание увидеть мир, которого она была лишена в заточении, заставляют будущую принцессу вновь отправиться навстречу захватывающим приключениям.- релиз: -- Большое спасибо SLuMeP за запись DVB дубляжа
- За работу со звуком большое спасибо *Sergeant_am*
- Работа с WEB-DL -Azureus--Качество: WEB-DL 1080p
Формат: MKV
Видео кодек: AVC
Аудио кодек: AC3
Видео: 1920x1080, 23,976 fps, ~5133 kbps avg, 0.103 bit/pixel
Аудио #1: [RUS] 48 kHz, AC3 Dolby Digital, 2/0 (L,R) ch, ~192 kbps
Аудио #2: [ENG] 48 kHz, AC3 Dolby Digital, 3/2 (L,C,R,l,r) + LFE ch, ~384 kbps avg
субтитры: английские

MI

Общее
Уникальный идентификатор : 195665224932749209092078936568331926644 (0x9333C0675F1D6F1BBDD13B9D98C67C74)
Полное имя : D:\Mult\Tangled. Before Ever After.2017.WEB-DL 1080p.mkv
Формат : Matroska
Версия формата : Version 4 / Version 2
Размер файла : 2,20 Гбайт
Продолжительность : 55 м. 1 с.
Общий поток : 5711 Кбит/сек
Название фильма : Tangled: Before Ever After.2017.WEB-DL 1080p -Azureus-
Дата кодирования : UTC 2018-01-13 15:29:05
Программа кодирования : mkvmerge v13.0.0 ('The Juggler') 64bit
Библиотека кодирования : libebml v1.3.4 + libmatroska v1.4.5
Видео
Идентификатор : 1
Формат : AVC
Формат/Информация : Advanced Video Codec
Профиль формата : High@L4
Настройки формата : CABAC / 4 Ref Frames
Параметр CABAC формата : Да
Параметр RefFrames формата : 4 кадра
Идентификатор кодека : V_MPEG4/ISO/AVC
Продолжительность : 55 м. 1 с.
Битрейт : 5133 Кбит/сек
Ширина : 1920 пикселей
Высота : 1080 пикселей
Соотношение сторон : 16:9
Режим частоты кадров : Постоянный
Частота кадров : 23,976 (24000/1001) кадра/сек
Цветовое пространство : YUV
Субдискретизация насыщенности : 4:2:0
Битовая глубина : 8 бит
Тип развёртки : Прогрессивная
Бит/(Пиксели*Кадры) : 0.103
Размер потока : 1,97 Гбайт (90%)
Язык : English
Default : Да
Forced : Нет
Цветовой диапазон : Limited
Основные цвета : BT.709
Характеристики трансфера : BT.709
Коэффициенты матрицы : BT.709
Аудио #1
Идентификатор : 2
Формат : AC-3
Формат/Информация : Audio Coding 3
Идентификатор кодека : A_AC3
Продолжительность : 55 м. 1 с.
Вид битрейта : Постоянный
Битрейт : 192 Кбит/сек
Каналы : 2 канала
Расположение каналов : Front: L R
Частота : 48,0 КГц
Частота кадров : 31,250 кадров/сек (1536 SPF)
Битовая глубина : 16 бит
Метод сжатия : С потерями
Размер потока : 75,6 Мбайт (3%)
Заголовок : DUB - Невафильм
Язык : Russian
ServiceKind/String : Complete Main
Default : Да
Forced : Нет
Аудио #2
Идентификатор : 3
Формат : AC-3
Формат/Информация : Audio Coding 3
Идентификатор кодека : A_AC3
Продолжительность : 55 м. 1 с.
Вид битрейта : Постоянный
Битрейт : 384 Кбит/сек
Каналы : 6 каналов
Расположение каналов : Front: L C R, Side: L R, LFE
Частота : 48,0 КГц
Частота кадров : 31,250 кадров/сек (1536 SPF)
Битовая глубина : 16 бит
Метод сжатия : С потерями
Размер потока : 151 Мбайт (7%)
Заголовок : ENG
Язык : English
ServiceKind/String : Complete Main
Default : Нет
Forced : Нет
Текст
Идентификатор : 4
Формат : UTF-8
Идентификатор кодека : S_TEXT/UTF8
Идентификатор кодека/Информация : UTF-8 Plain Text
Продолжительность : 54 м. 53 с.
Битрейт : 95 бит/сек
ElementCount : 969
Размер потока : 38,2 Кбайт (0%)
Заголовок : Eng Sub
Язык : English
Default : Нет
Forced : Нет


Display posts:    

Current time is: 25-Jun 07:29

All times are UTC ± 0


You cannot post new topics in this forum
You cannot reply to topics in this forum
You cannot edit your posts in this forum
You cannot delete your posts in this forum
You cannot vote in polls in this forum
You cannot attach files in this forum
You cannot download files in this forum

!ATTENTION!
The site does not give electronic versions of products, and is engaged only in a collecting and cataloguing of the references sent and published at a forum by our readers. If you are the legal owner of any submitted material and do not wish that the reference to it was in our catalogue, contact us and we shall immediately remove her. Files for an exchange on tracker are given by users of a site, and the administration does not bear the responsibility for their maintenance. The request to not fill in the files protected by copyrights, and also files of the illegal maintenance!