Важное объявление!
У Нас Все раздачи мультитрекерные, при нуле пиров в релизах, можете смело вставать на закачку!
 
Автор Сообщение

HUNTER

Стаж:
4 года 4 месяца
Сообщений:
56765

Репутация: 101

[+] [-]
Вне форума [Профиль] [ЛС]


Rammstein
Mein Land
-Год производства: 2011
Страна: Germany
Жанр: Industrial Metal
Продолжительность: 00:04:24-Описание:
Mein Land (нем. Моя земля) — двадцать четвёртый сингл группы Rammstein и первый сингл cо сборника Made in Germany 1995–2011, который был выпущен 2 декабря 2011 года. Изначально песня записывалась для шестого студийного альбома Liebe ist fur alle da, но не вошла в него, так как группа посчитала её недоработанной. Эта недоработанная демо-версия появилась в Интернете 11 июня, но версия, представленная на сингле, звучит несколько иначе, как и обещала Rammstein Community, и были добавлены новые строчки к тексту.-Качество видео: WEBRip
Формат видео: mp4
Видео кодек: AVC/H.264
Аудио кодек: AAC
Видео: 1280:720 pixels, 16:9, 25.000 fps
Аудио: 178 Kbps, 2 channels, Front: L R, 44.1 KHz-

Скриншоты


-

Скринлист

-

Mediainfo

Код: copyText_writeLink('this.parentNode.parentNode.nextSibling.nextSibling');
General
Complete name : D:\Торенты\Mein Land.mp4
Format : MPEG-4
Format profile : Base Media
Codec ID : isom
File size : 84.1 MiB
Duration : 4mn 24s
Overall bit rate mode : Variable
Overall bit rate : 2 669 Kbps
Encoded date : UTC 2011-11-08 10:19:18
Tagged date : UTC 2011-11-09 10:19:21
Video
ID : 1
Format : AVC
Format/Info : Advanced Video Codec
Format profile : [url=mailto:High@L3.1]High@L3.1[/url]
Format settings, CABAC : Yes
Format settings, ReFrames : 4 frames
Codec ID : avc1
Codec ID/Info : Advanced Video Coding
Duration : 4mn 24s
Bit rate : 2 509 Kbps
Maximum bit rate : 4 733 Kbps
Width : 1 280 pixels
Height : 720 pixels
Display aspect ratio : 16:9
Frame rate mode : Constant
Frame rate : 25.000 fps
Color space : YUV
Chroma subsampling : 4:2:0
Bit depth : 8 bits
Scan type : Progressive
Bits/(Pixel*Frame) : 0.109
Stream size : 79.1 MiB (94%)
Writing library : Vimeo Encoder
Encoded date : UTC 2011-11-08 10:19:18
Tagged date : UTC 2011-11-08 10:19:20
Audio
ID : 2
Format : AAC
Format/Info : Advanced Audio Codec
Format profile : LC
Codec ID : 40
Duration : 4mn 24s
Bit rate mode : Variable
Bit rate : 157 Kbps
Maximum bit rate : 178 Kbps
Channel(s) : 2 channels
Channel positions : Front: L R
Sampling rate : 44.1 KHz
Compression mode : Lossy
Stream size : 4.96 MiB (6%)
Encoded date : UTC 2011-11-08 10:19:19
Tagged date : UTC 2011-11-08 10:19:20

_________________
Показать сообщения:    

Текущее время: Сегодня 06:48

Часовой пояс: GMT



Вы не можете начинать темы
Вы не можете отвечать на сообщения
Вы не можете редактировать свои сообщения
Вы не можете удалять свои сообщения
Вы не можете голосовать в опросах
Вы не можете прикреплять файлы к сообщениям
Вы не можете скачивать файлы